<?xml version="1.0" standalone="no"?>
<!DOCTYPE svg PUBLIC "-//W3C//DTD SVG 1.1//EN" "http://www.w3.org/Graphics/SVG/1.1/DTD/svg11.dtd" >
<svg xmlns="http://www.w3.org/2000/svg" xmlns:xlink="http://www.w3.org/1999/xlink" version="1.1">
<metadata>
Created by FontForge 20170731 at Mon Feb  7 20:28:35 2022
 By Aleksey,,,
Copyright 2015-2021 Google LLC. All Rights Reserved.
</metadata>
<defs>
<font id="NotoSans-Thin" horiz-adv-x="0" >
  <font-face 
    font-family="Noto Sans Thin"
    font-weight="100"
    font-stretch="normal"
    units-per-em="1000"
    panose-1="2 11 2 2 4 5 4 2 2 4"
    ascent="800"
    descent="-200"
    x-height="527"
    cap-height="714"
    bbox="-617 -395 2800 1347"
    underline-thickness="50"
    underline-position="-175"
    unicode-range="U+000D-FFFD"
  />
<missing-glyph horiz-adv-x="600" 
d="M94 0v714h411v-714h-411zM145 51h309v612h-309v-612z" />
    <glyph glyph-name="f_f" unicode="ff" horiz-adv-x="548" 
d="M258 503h-119v-503h-26v503h-102v22l102 3v75q0 78 33.5 120t110.5 42q25 0 44 -3.5t38 -8.5l-4 -26q-18 7 -38.5 10t-39.5 3q-64 0 -91 -31.5t-27 -105.5v-75h119v-25zM532 503h-119v-503h-26v503h-102v22l102 3v75q0 78 33.5 120t110.5 42q25 0 44 -3.5t38 -8.5l-4 -26
q-18 7 -38.5 10t-39.5 3q-64 0 -91 -31.5t-27 -105.5v-75h119v-25z" />
    <glyph glyph-name="fi" unicode="fi" horiz-adv-x="481" 
d="M258 503h-119v-503h-26v503h-102v22l102 3v75q0 78 33.5 120t110.5 42q25 0 44 -3.5t38 -8.5l-4 -26q-18 7 -38.5 10t-39.5 3q-64 0 -91 -31.5t-27 -105.5v-75h119v-25zM377 721q18 0 22.5 -9.5t4.5 -21.5q0 -13 -4.5 -22t-22.5 -9q-15 0 -20 9t-5 22q0 12 5 21.5t20 9.5
zM390 528v-528h-26v528h26z" />
    <glyph glyph-name="fl" unicode="fl" horiz-adv-x="481" 
d="M258 503h-119v-503h-26v503h-102v22l102 3v75q0 78 33.5 120t110.5 42q25 0 44 -3.5t38 -8.5l-4 -26q-18 7 -38.5 10t-39.5 3q-64 0 -91 -31.5t-27 -105.5v-75h119v-25zM391 0h-26v760h26v-760z" />
    <glyph glyph-name="f_f_i" unicode="ffi" horiz-adv-x="755" 
d="M258 503h-119v-503h-26v503h-102v22l102 3v75q0 78 33.5 120t110.5 42q25 0 44 -3.5t38 -8.5l-4 -26q-18 7 -38.5 10t-39.5 3q-64 0 -91 -31.5t-27 -105.5v-75h119v-25zM532 503h-119v-503h-26v503h-102v22l102 3v75q0 78 33.5 120t110.5 42q25 0 44 -3.5t38 -8.5l-4 -26
q-18 7 -38.5 10t-39.5 3q-64 0 -91 -31.5t-27 -105.5v-75h119v-25zM651 721q18 0 22.5 -9.5t4.5 -21.5q0 -13 -4.5 -22t-22.5 -9q-15 0 -20 9t-5 22q0 12 5 21.5t20 9.5zM664 528v-528h-26v528h26z" />
    <glyph glyph-name="f_f_l" unicode="ffl" horiz-adv-x="755" 
d="M258 503h-119v-503h-26v503h-102v22l102 3v75q0 78 33.5 120t110.5 42q25 0 44 -3.5t38 -8.5l-4 -26q-18 7 -38.5 10t-39.5 3q-64 0 -91 -31.5t-27 -105.5v-75h119v-25zM532 503h-119v-503h-26v503h-102v22l102 3v75q0 78 33.5 120t110.5 42q25 0 44 -3.5t38 -8.5l-4 -26
q-18 7 -38.5 10t-39.5 3q-64 0 -91 -31.5t-27 -105.5v-75h119v-25zM665 0h-26v760h26v-760z" />
    <glyph glyph-name=".notdef" horiz-adv-x="600" 
d="M94 0v714h411v-714h-411zM145 51h309v612h-309v-612z" />
    <glyph glyph-name=".null" 
 />
    <glyph glyph-name="nonmarkingreturn" horiz-adv-x="333" 
 />
    <glyph glyph-name="NULL" 
 />
    <glyph glyph-name="NULL" 
 />
    <glyph glyph-name="CR" unicode="&#xd;" horiz-adv-x="260" 
 />
    <glyph glyph-name="space" unicode=" " horiz-adv-x="260" 
 />
    <glyph glyph-name="exclam" unicode="!" horiz-adv-x="223" 
d="M125 174h-25l-2 540h29zM85 23q0 12 5 21.5t20 9.5q18 0 22.5 -9.5t4.5 -21.5q0 -13 -4.5 -22t-22.5 -9q-15 0 -20 9t-5 22z" />
    <glyph glyph-name="quotedbl" unicode="&#x22;" horiz-adv-x="320" 
d="M101 714l-4 -258h-20l-4 258h28zM247 714l-4 -258h-20l-4 258h28z" />
    <glyph glyph-name="numbersign" unicode="#" horiz-adv-x="646" 
d="M467 462l-41 -211h153v-24h-157l-44 -227h-25l44 227h-199l-44 -227h-25l44 227h-145v24h149l41 211h-151v24h155l44 228h25l-44 -228h199l44 228h25l-44 -228h147v-24h-151zM202 251h199l41 211h-199z" />
    <glyph glyph-name="dollar" unicode="$" horiz-adv-x="570" 
d="M253 10q-63 1 -108.5 10t-77.5 19v29q35 -13 83 -22.5t103 -10.5v318q-51 20 -94 41.5t-69 54.5t-26 87q0 53 25 89t67.5 56t96.5 23v55h24v-55q40 -1 81 -9.5t81 -27.5l-11 -23q-42 19 -80.5 26.5t-70.5 8.5v-309q56 -20 99.5 -42.5t68 -55.5t24.5 -86q0 -85 -54.5 -128
t-137.5 -48v-68h-24v68zM253 679q-45 -2 -81.5 -18t-58.5 -46.5t-22 -76.5t23 -75.5t60 -48.5t79 -35v300zM277 35q71 4 118 40.5t47 111.5q0 42 -20 69.5t-57 47.5t-88 39v-308z" />
    <glyph glyph-name="percent" unicode="%" horiz-adv-x="793" 
d="M197 724q69 0 102.5 -57t33.5 -166q0 -113 -36.5 -169t-101.5 -56q-66 0 -101 57t-35 168t37 167t101 56zM609 714l-396 -714h-28l396 714h28zM197 699q-52 0 -81.5 -49t-29.5 -149q0 -99 28.5 -149.5t80.5 -50.5q56 0 83.5 51.5t27.5 148.5q0 96 -26 147t-83 51z
M598 438q69 0 102.5 -57t33.5 -166q0 -113 -36.5 -169t-101.5 -56q-66 0 -101 57t-35 168t37 167t101 56zM598 413q-52 0 -81.5 -49t-29.5 -149q0 -99 28.5 -149.5t80.5 -50.5q56 0 83.5 51.5t27.5 148.5q0 96 -26 147t-83 51z" />
    <glyph glyph-name="ampersand" unicode="&#x26;" horiz-adv-x="702" 
d="M304 725q68 0 112 -38.5t44 -105.5q0 -69 -46.5 -112t-124.5 -81l243 -247q30 36 54 84t36 103h27q-14 -61 -40 -111.5t-60 -94.5l118 -122h-35l-99 105q-46 -50 -104.5 -82.5t-147.5 -32.5q-96 0 -157 49t-61 140q0 56 21.5 93.5t62.5 66t99 56.5q-35 35 -59 63t-36 56
t-12 62q0 68 46 108.5t119 40.5zM304 700q-64 0 -101 -33.5t-37 -90.5q0 -46 27 -83t76 -87q76 33 120 73.5t44 101.5q0 56 -35 87.5t-94 31.5zM264 377q-56 -26 -95 -52t-59 -60t-20 -86q0 -79 53 -121.5t138 -42.5q83 0 136 29t99 78z" />
    <glyph glyph-name="quotesingle" unicode="'" horiz-adv-x="172" 
d="M101 714l-4 -258h-20l-4 258h28z" />
    <glyph glyph-name="parenleft" unicode="(" horiz-adv-x="255" 
d="M42 274q0 133 38.5 246t106.5 194h33q-77 -88 -114 -200.5t-37 -238.5q0 -124 37.5 -234t113.5 -199h-33q-68 84 -106.5 192.5t-38.5 239.5z" />
    <glyph glyph-name="parenright" unicode=")" horiz-adv-x="255" 
d="M214 282q0 -133 -38.5 -246t-106.5 -194h-33q77 89 114 201t37 238q0 125 -37.5 234.5t-113.5 198.5h33q68 -84 106.5 -192.5t38.5 -239.5z" />
    <glyph glyph-name="asterisk" unicode="*" horiz-adv-x="551" 
d="M287 758l-6 -206l194 69l8 -27l-196 -57l125 -163l-23 -17l-116 170l-115 -169l-23 16l125 163l-198 57l9 27l194 -69l-6 206h28z" />
    <glyph glyph-name="plus" unicode="+" horiz-adv-x="570" 
d="M297 365h218v-24h-218v-218h-24v218h-218v24h218v218h24v-218z" />
    <glyph glyph-name="comma" unicode="," horiz-adv-x="183" 
d="M125 104q-11 -55 -27.5 -118t-37.5 -115h-22q22 73 35 130.5t21 114.5h28z" />
    <glyph glyph-name="hyphen" unicode="-" horiz-adv-x="322" 
d="M40 259v25h242v-25h-242z" />
    <glyph glyph-name="period" unicode="." horiz-adv-x="220" 
d="M85 23q0 12 5 21.5t20 9.5q18 0 22.5 -9.5t4.5 -21.5q0 -13 -4.5 -22t-22.5 -9q-15 0 -20 9t-5 22z" />
    <glyph glyph-name="slash" unicode="/" horiz-adv-x="322" 
d="M309 714l-268 -714h-28l268 714h28z" />
    <glyph glyph-name="slash" unicode="&#x2215;" horiz-adv-x="322" 
d="M309 714l-268 -714h-28l268 714h28z" />
    <glyph glyph-name="zero" unicode="0" horiz-adv-x="570" 
d="M507 360q0 -370 -222 -370q-106 0 -164.5 91t-58.5 279q0 104 21.5 186.5t71 130.5t131.5 48q85 0 133 -46.5t68 -129t20 -189.5zM89 360q0 -176 49.5 -260.5t146.5 -84.5q103 0 149 85t46 260q0 102 -16.5 178.5t-58.5 119t-119 42.5q-75 0 -118 -44t-61 -120.5
t-18 -175.5z" />
    <glyph glyph-name="one" unicode="1" horiz-adv-x="570" 
d="M320 0h-26v563v72.5t1 49.5q-12 -10 -23.5 -19.5t-30.5 -23.5l-123 -91l-16 21l195 142h23v-714z" />
    <glyph glyph-name="two" unicode="2" horiz-adv-x="570" 
d="M491 0h-432v23l224 237q49 51 81.5 93.5t49.5 86.5t17 99q0 75 -43 117.5t-120 42.5q-43 0 -88 -16t-85 -48l-15 20q46 38 95.5 53.5t92.5 15.5q57 0 100 -23.5t66.5 -65t23.5 -96.5q0 -60 -18.5 -107t-53 -91t-83.5 -95l-208 -220v-1h396v-25z" />
    <glyph glyph-name="three" unicode="3" horiz-adv-x="570" 
d="M470 551q0 -70 -43.5 -117.5t-108.5 -58.5v-2q83 -11 128.5 -55t45.5 -124q0 -89 -62.5 -146.5t-182.5 -57.5q-59 0 -110.5 12t-89.5 30v28q38 -19 91.5 -32t108.5 -13q108 0 163 48.5t55 130.5q0 60 -29 96.5t-79.5 52.5t-117.5 16h-83v25h83q53 0 99.5 17.5t75.5 54.5
t29 95q0 75 -46.5 111.5t-123.5 36.5q-56 0 -105.5 -17.5t-98.5 -52.5l-14 21q44 34 98 54t120 20q88 0 142.5 -45t54.5 -128z" />
    <glyph glyph-name="four" unicode="4" horiz-adv-x="570" 
d="M560 194h-134v-194h-26v194h-375v18l373 506h28v-499h134v-25zM400 524v69.5t0.5 47t0.5 45.5h-2q-17 -27 -29 -45t-35 -49l-275 -373h340v305z" />
    <glyph glyph-name="five" unicode="5" horiz-adv-x="570" 
d="M274 426q107 0 169 -54t62 -155q0 -70 -31.5 -121t-88.5 -78.5t-132 -27.5q-57 0 -102 12t-77 30v30q34 -20 79 -33.5t100 -13.5q102 0 163.5 53.5t61.5 148.5q0 86 -51.5 135t-152.5 49q-46 0 -83 -6t-74 -17l-19 15l30 321h334v-25h-311l-25 -283q25 6 61 13t87 7z" />
    <glyph glyph-name="six" unicode="6" horiz-adv-x="570" 
d="M68 303q0 153 39 246t107 135t153 42q30 0 54 -3.5t44 -9.5v-27q-18 7 -43 11t-55 4q-79 0 -139.5 -38.5t-96 -121.5t-38.5 -219h2q13 28 40 55t69.5 44.5t99.5 17.5q99 0 154 -58t55 -156q0 -69 -25 -122t-73 -83t-116 -30q-63 0 -107.5 27t-71.5 72t-39.5 101
t-12.5 113zM299 15q91 0 139 56.5t48 153.5q0 88 -45 138.5t-137 50.5q-63 0 -109 -25t-70.5 -61t-24.5 -70q0 -30 8.5 -71t30 -80.5t60.5 -65.5t100 -26z" />
    <glyph glyph-name="seven" unicode="7" horiz-adv-x="570" 
d="M183 0l297 689h-422v25h452v-17l-298 -697h-29z" />
    <glyph glyph-name="eight" unicode="8" horiz-adv-x="570" 
d="M283 724q90 0 143 -43t53 -120q0 -66 -44.5 -107.5t-120.5 -71.5q89 -30 139 -77t50 -124q0 -61 -30 -103.5t-80.5 -65t-113.5 -22.5t-111.5 23.5t-76 65t-27.5 96.5q0 82 51 130t136 76q-45 17 -82 39.5t-59.5 56t-22.5 82.5q0 50 25 87t69.5 57.5t101.5 20.5zM283 699
q-73 0 -121 -36t-48 -104q0 -64 47 -101t125 -64q83 34 124.5 71t41.5 96q0 69 -44.5 103.5t-124.5 34.5zM91 175q0 -74 52 -117t136 -43q86 0 141.5 42t55.5 124q0 65 -42.5 106.5t-124.5 70.5l-28 10q-53 -17 -96 -41.5t-68.5 -61t-25.5 -90.5z" />
    <glyph glyph-name="nine" unicode="9" horiz-adv-x="570" 
d="M500 413q0 -153 -39 -246.5t-106.5 -136t-153.5 -42.5q-29 0 -58.5 3.5t-49.5 9.5v28q18 -7 47.5 -11.5t60.5 -4.5q78 0 139 39t96.5 123t38.5 219h-2q-13 -28 -40.5 -55.5t-70 -45.5t-100.5 -18q-99 0 -153 59t-54 157q0 69 25 121.5t73 82t116 29.5q65 0 109 -26.5
t71 -71t39 -100t12 -113.5zM269 699q-91 0 -139 -55.5t-48 -152.5q0 -88 45.5 -139.5t136.5 -51.5q63 0 108.5 25.5t70.5 62t25 70.5q0 29 -8.5 70t-30 80t-60.5 65t-100 26z" />
    <glyph glyph-name="colon" unicode=":" horiz-adv-x="220" 
d="M85 501q0 12 5 21.5t20 9.5q18 0 22.5 -9.5t4.5 -21.5q0 -13 -4.5 -22t-22.5 -9q-15 0 -20 9t-5 22zM85 23q0 12 5 21.5t20 9.5q18 0 22.5 -9.5t4.5 -21.5q0 -13 -4.5 -22t-22.5 -9q-15 0 -20 9t-5 22z" />
    <glyph glyph-name="semicolon" unicode=";" horiz-adv-x="220" 
d="M85 501q0 12 5 21.5t20 9.5q18 0 22.5 -9.5t4.5 -21.5q0 -13 -4.5 -22t-22.5 -9q-15 0 -20 9t-5 22zM125 104q-11 -55 -27.5 -118t-37.5 -115h-22q22 73 35 130.5t21 114.5h28z" />
    <glyph glyph-name="less" unicode="&#x3c;" horiz-adv-x="570" 
d="M514 138l-458 215v18l458 215v-26l-423 -198l423 -198v-26z" />
    <glyph glyph-name="equal" unicode="=" horiz-adv-x="570" 
d="M55 443v24h460v-24h-460zM55 239v24h460v-24h-460z" />
    <glyph glyph-name="greater" unicode="&#x3e;" horiz-adv-x="570" 
d="M56 164l423 198l-423 198v26l458 -215v-18l-458 -215v26z" />
    <glyph glyph-name="question" unicode="?" horiz-adv-x="413" 
d="M144 186q0 50 7 81.5t25.5 55.5t52.5 48q36 26 62.5 50.5t41 55.5t14.5 77q0 75 -44.5 110t-114.5 35q-37 0 -70.5 -8t-69.5 -26l-10 26q44 18 77 25.5t73 7.5q84 0 135 -42t51 -128q0 -50 -16.5 -85.5t-46 -63t-69.5 -55.5q-39 -27 -56 -61.5t-17 -102.5v-12h-25v12z
M133 23q0 12 5 21.5t20 9.5q18 0 22.5 -9.5t4.5 -21.5q0 -13 -4.5 -22t-22.5 -9q-15 0 -20 9t-5 22z" />
    <glyph glyph-name="at" unicode="@" horiz-adv-x="878" 
d="M826 351q0 -68 -17 -123.5t-51.5 -88t-87.5 -32.5q-45 0 -73.5 27t-30.5 78h-1q-22 -56 -64 -80.5t-90 -24.5q-73 0 -113 45.5t-40 131.5q0 64 27 114t74.5 79t110.5 29q36 0 68 -5t60 -15l-7 -145q-1 -18 -2.5 -43.5t-1.5 -51.5q0 -54 18.5 -84t64.5 -30q45 0 73.5 28
t42 77.5t13.5 113.5q0 99 -38 173.5t-112 115.5t-182 41q-113 0 -201 -46t-137.5 -134.5t-49.5 -216.5q0 -111 40 -191.5t115 -124t180 -43.5q50 0 102 10.5t100 30.5v-28q-43 -18 -94 -28t-108 -10q-112 0 -193 47t-125 133.5t-44 203.5q0 136 52.5 230t146.5 143t216 49
q112 0 192 -43.5t123.5 -123t43.5 -188.5zM285 284q0 -72 31 -112t95 -40q70 0 109 44.5t44 139.5l8 150q-43 15 -102 15q-82 0 -133.5 -53t-51.5 -144z" />
    <glyph glyph-name="A" unicode="A" horiz-adv-x="577" 
d="M549 0l-104 271h-310l-107 -271h-28l282 716h25l270 -716h-28zM325 594q-6 17 -14 38.5t-18 49.5q-7 -22 -16 -45.5t-17 -43.5l-116 -297h291z" />
    <glyph glyph-name="B" unicode="B" horiz-adv-x="613" 
d="M294 714q131 0 188 -43t57 -129q0 -61 -36 -107t-105 -58v-2q89 -13 124 -58.5t35 -113.5q0 -73 -33 -118t-90.5 -65t-130.5 -20h-200v714h191zM303 388q209 0 209 153q0 79 -52.5 113.5t-168.5 34.5h-162v-301h174zM129 363v-338h182q102 0 160.5 42.5t58.5 134.5
q0 62 -27.5 97t-79 49.5t-123.5 14.5h-171z" />
    <glyph glyph-name="C" unicode="C" horiz-adv-x="614" 
d="M405 699q-100 0 -170.5 -44t-107.5 -120.5t-37 -174.5q0 -103 33 -181t99 -121t164 -43q58 0 103 8t81 21v-23q-33 -13 -79 -22t-105 -9q-106 0 -178 46.5t-108.5 129.5t-36.5 194q0 104 41 186.5t117.5 130t183.5 47.5q97 0 178 -37l-10 -25q-43 23 -85 30t-83 7z" />
    <glyph glyph-name="D" unicode="D" horiz-adv-x="692" 
d="M628 364q0 -179 -91.5 -271.5t-279.5 -92.5h-154v714h177q177 0 262.5 -90t85.5 -260zM601 363q0 159 -78.5 242.5t-252.5 83.5h-141v-664h131q341 0 341 338z" />
    <glyph glyph-name="E" unicode="E" horiz-adv-x="550" 
d="M488 0h-385v714h385v-25h-359v-300h339v-25h-339v-339h359v-25z" />
    <glyph glyph-name="F" unicode="F" horiz-adv-x="492" 
d="M129 0h-26v714h386v-25h-360v-335h341v-25h-341v-329z" />
    <glyph glyph-name="G" unicode="G" horiz-adv-x="720" 
d="M367 350h272v-314q-48 -23 -105.5 -34.5t-116.5 -11.5q-173 0 -263.5 95t-90.5 270q0 106 43.5 189.5t124.5 132.5t193 49q57 0 108.5 -10.5t98.5 -33.5l-12 -25q-51 25 -99.5 34.5t-96.5 9.5q-103 0 -178 -45t-115 -123t-40 -177q0 -121 40.5 -196t114.5 -110t174 -35
q58 0 106.5 9.5t87.5 25.5v275h-246v25z" />
    <glyph glyph-name="H" unicode="H" horiz-adv-x="706" 
d="M603 0h-26v363h-448v-363h-26v714h26v-326h448v326h26v-714z" />
    <glyph glyph-name="I" unicode="I" horiz-adv-x="283" 
d="M223 0h-162v20l68 3v667l-68 4v20h162v-20l-68 -4v-667l68 -3v-20z" />
    <glyph glyph-name="J" unicode="J" horiz-adv-x="231" 
d="M-19 -174q-28 0 -47 4t-32 8v28q14 -6 35 -10t44 -4q72 0 98.5 42.5t26.5 110.5v709h26v-712q0 -49 -14.5 -89t-47.5 -63.5t-89 -23.5z" />
    <glyph glyph-name="K" unicode="K" horiz-adv-x="558" 
d="M558 0h-34l-290 398l-105 -105v-293h-26v714h26v-390q11 13 24 26l26 26l335 338h38l-298 -297z" />
    <glyph glyph-name="L" unicode="L" horiz-adv-x="506" 
d="M103 0v714h26v-689h357v-25h-383z" />
    <glyph glyph-name="M" unicode="M" horiz-adv-x="837" 
d="M408 0l-278 679h-2q1 -25 1 -42.5v-40.5v-596h-26v714h42l272 -666h3l273 666h40v-714h-26v602v33t1 43h-2l-278 -678h-20z" />
    <glyph glyph-name="N" unicode="N" horiz-adv-x="698" 
d="M594 0h-19l-445 655h-2q1 -43 1 -78v-75v-502h-26v714h20l444 -653h2q-1 38 -1 77v73v503h26v-714z" />
    <glyph glyph-name="O" unicode="O" horiz-adv-x="754" 
d="M690 358q0 -108 -34.5 -191t-104 -130t-175.5 -47q-104 0 -173.5 47.5t-104.5 130.5t-35 191t37 190.5t108.5 129t173.5 46.5q148 0 228 -96.5t80 -270.5zM90 359q0 -100 31 -177.5t95 -122t161 -44.5q98 0 161.5 43.5t94 121t30.5 178.5q0 163 -73 252.5t-208 89.5
q-98 0 -163 -44t-97 -121t-32 -176z" />
    <glyph glyph-name="P" unicode="P" horiz-adv-x="573" 
d="M270 714q119 0 182.5 -45.5t63.5 -149.5q0 -77 -32 -124.5t-90.5 -68.5t-137.5 -21h-127v-305h-26v714h167zM266 689h-137v-359h125q70 0 123 16.5t82.5 57.5t29.5 114q0 91 -54.5 131t-168.5 40z" />
    <glyph glyph-name="Q" unicode="Q" horiz-adv-x="754" 
d="M690 358q0 -95 -27.5 -172t-82 -126.5t-137.5 -63.5l142 -166h-36l-136 162q-9 -1 -18 -1.5t-19 -0.5q-104 0 -173.5 47.5t-104.5 130.5t-35 191t37 190.5t108.5 129t173.5 46.5q148 0 228 -96.5t80 -270.5zM90 359q0 -100 31 -177.5t95 -122t161 -44.5q98 0 161.5 43.5
t94 121t30.5 178.5q0 163 -73 252.5t-208 89.5q-98 0 -163 -44t-97 -121t-32 -176z" />
    <glyph glyph-name="R" unicode="R" horiz-adv-x="577" 
d="M262 714q83 0 139.5 -16.5t85.5 -57.5t29 -115q0 -79 -42.5 -128.5t-118.5 -69.5l196 -327h-33l-191 320h-198v-320h-26v714h159zM257 689h-128v-344h163q87 0 142 47t55 132q0 64 -25.5 100t-77 50.5t-129.5 14.5z" />
    <glyph glyph-name="S" unicode="S" horiz-adv-x="543" 
d="M489 180q0 -64 -32.5 -106.5t-87 -63t-119.5 -20.5q-69 0 -113.5 9.5t-80.5 19.5v29q40 -14 87.5 -23.5t108.5 -9.5q57 0 104.5 17.5t76.5 54t29 94.5q0 50 -24 80.5t-68.5 51t-106.5 39.5q-58 19 -103 40.5t-70.5 57t-25.5 94.5q0 60 30.5 100t82 60t114.5 20
q47 0 91.5 -8.5t88.5 -28.5l-11 -23q-46 20 -88.5 27.5t-82.5 7.5q-53 0 -98 -16t-72.5 -49.5t-27.5 -87.5t25 -86t67.5 -50.5t93.5 -34.5q64 -20 111.5 -42.5t74 -58t26.5 -94.5z" />
    <glyph glyph-name="T" unicode="T" horiz-adv-x="505" 
d="M265 0h-26v689h-237v25h501v-25h-238v-689z" />
    <glyph glyph-name="U" unicode="U" horiz-adv-x="712" 
d="M618 252q0 -89 -33.5 -147t-92.5 -86.5t-137 -28.5q-124 0 -192 67t-68 197v460h26v-458q0 -120 61.5 -180.5t173.5 -60.5q107 0 171.5 57.5t64.5 171.5v470h26v-462z" />
    <glyph glyph-name="V" unicode="V" horiz-adv-x="563" 
d="M563 714l-269 -714h-25l-269 714h28l216 -571q11 -28 21 -55.5t17 -50.5q8 23 16.5 47.5t21.5 58.5l215 571h28z" />
    <glyph glyph-name="W" unicode="W" horiz-adv-x="869" 
d="M839 714l-198 -714h-24l-161 582q-7 29 -13 47.5t-12 45.5q-4 -25 -7.5 -39.5t-8.5 -31.5l-163 -604h-24l-195 714h27l148 -544q10 -37 17.5 -63t14.5 -55q7 29 14 55.5t17 63.5l149 543h25l153 -546q11 -39 17.5 -64.5t13.5 -55.5q6 30 12 55.5t17 64.5l154 546h27z" />
    <glyph glyph-name="X" unicode="X" horiz-adv-x="509" 
d="M512 0h-31l-225 350l-228 -350h-31l242 370l-217 344h31l204 -324l206 324h31l-220 -344z" />
    <glyph glyph-name="Y" unicode="Y" horiz-adv-x="505" 
d="M253 301l222 413h30l-238 -439v-275h-26v271l-241 443h30z" />
    <glyph glyph-name="Z" unicode="Z" horiz-adv-x="578" 
d="M538 0h-502v18l453 671h-425v25h462v-18l-453 -671h465v-25z" />
    <glyph glyph-name="bracketleft" unicode="[" horiz-adv-x="313" 
d="M288 -158h-200v872h200v-25h-175v-822h175v-25z" />
    <glyph glyph-name="backslash" unicode="\" horiz-adv-x="322" 
d="M41 714l268 -714h-28l-268 714h28z" />
    <glyph glyph-name="bracketright" unicode="]" horiz-adv-x="313" 
d="M25 -133h175v822h-175v25h200v-872h-200v25z" />
    <glyph glyph-name="asciicircum" unicode="^" horiz-adv-x="570" 
d="M46 278l236 441h23l219 -441h-29l-203 408l-217 -408h-29z" />
    <glyph glyph-name="underscore" unicode="_" horiz-adv-x="391" 
d="M393 -116h-395v25h395v-25z" />
    <glyph glyph-name="grave" unicode="`" horiz-adv-x="249" 
d="M70 766q15 -21 39 -49.5t51 -56.5t49 -48v-6h-21q-40 33 -81 76t-67 77v7h30z" />
    <glyph glyph-name="a" unicode="a" horiz-adv-x="511" 
d="M264 537q82 0 123 -44.5t41 -142.5v-350h-22l-4 103h-2q-21 -46 -66 -79.5t-126 -33.5q-79 0 -119.5 38t-40.5 101q0 79 66.5 118.5t184.5 46.5l103 6v43q0 90 -34 129.5t-104 39.5q-40 0 -77.5 -9t-80.5 -31l-9 26q40 18 81.5 28.5t85.5 10.5zM301 270
q-102 -5 -163.5 -38t-61.5 -103q0 -53 34 -83.5t98 -30.5q100 0 146.5 57t47.5 148v55z" />
    <glyph glyph-name="b" unicode="b" horiz-adv-x="583" 
d="M115 525q0 -24 -0.5 -59t-1.5 -60h2q17 58 68.5 95.5t127.5 37.5q105 0 159 -69.5t54 -203.5q0 -76 -23.5 -138.5t-74 -100t-131.5 -37.5q-71 0 -115.5 32.5t-62.5 81.5h-2l-4 -104h-22v760h26v-235zM311 514q-100 0 -148 -67t-48 -184v-10q0 -116 44.5 -177t135.5 -61
q99 0 150.5 65.5t51.5 185.5q0 248 -186 248z" />
    <glyph glyph-name="c" unicode="c" horiz-adv-x="472" 
d="M302 -10q-84 0 -138 35.5t-79.5 97t-25.5 138.5q0 81 31.5 143.5t89.5 98t139 35.5q36 0 65.5 -6t57.5 -18l-5 -25q-30 14 -59.5 19t-58.5 5q-72 0 -124 -32t-80.5 -89t-28.5 -131q0 -68 22.5 -124t70 -89t123.5 -33q36 0 71.5 7t64.5 19v-25q-25 -10 -60 -18t-76 -8z
" />
    <glyph glyph-name="d" unicode="d" horiz-adv-x="583" 
d="M283 -10q-114 0 -169 68t-55 196q0 137 60 210.5t172 73.5q72 0 116.5 -35.5t60.5 -88.5h2q-1 34 -1.5 66t-0.5 63v217h26v-760h-22l-2 113h-2q-18 -50 -62 -86.5t-123 -36.5zM283 15q100 0 142.5 65.5t42.5 182.5v3q0 120 -44 183.5t-133 63.5q-99 0 -152 -64.5
t-53 -194.5q0 -120 48.5 -179.5t148.5 -59.5z" />
    <glyph glyph-name="e" unicode="e" horiz-adv-x="540" 
d="M287 538q68 0 110 -33t62 -88.5t20 -125.5v-25h-393q-1 -121 53 -186t157 -65q48 0 82.5 7t80.5 28v-27q-38 -17 -76.5 -25t-86.5 -8q-83 0 -135.5 35t-77 96t-24.5 138q0 75 25 138.5t75.5 102t127.5 38.5zM287 513q-84 0 -137.5 -56.5t-62.5 -165.5h365q1 99 -40 160.5
t-125 61.5z" />
    <glyph glyph-name="f" unicode="f" horiz-adv-x="274" 
d="M258 503h-119v-503h-26v503h-102v22l102 3v75q0 78 33.5 120t110.5 42q25 0 44 -3.5t38 -8.5l-4 -26q-18 7 -38.5 10t-39.5 3q-64 0 -91 -31.5t-27 -105.5v-75h119v-25z" />
    <glyph glyph-name="g" unicode="g" horiz-adv-x="583" 
d="M290 538q73 0 112.5 -28.5t60.5 -72.5h2l5 91h22v-553q0 -63 -21.5 -111.5t-69.5 -76t-128 -27.5q-61 0 -105.5 11t-80.5 26v30q36 -17 83 -29.5t103 -12.5q106 0 149.5 52t43.5 138v42q0 29 0.5 50t1.5 50h-2q-18 -62 -67 -94.5t-123 -32.5q-102 0 -159.5 67.5
t-57.5 198.5t58 206.5t173 75.5zM290 513q-105 0 -154.5 -68t-49.5 -189q0 -118 49.5 -179.5t140.5 -61.5q59 0 96 20.5t57.5 54t28.5 74.5t8 82v48q0 63 -16 112.5t-54 78t-106 28.5z" />
    <glyph glyph-name="h" unicode="h" horiz-adv-x="573" 
d="M116 496q0 -22 -0.5 -39.5t-1.5 -39.5h2q11 32 35 59.5t63 44.5t95 17q86 0 133 -47t47 -145v-346h-26v345q0 88 -40.5 128t-113.5 40q-86 0 -139.5 -51.5t-53.5 -159.5v-302h-26v760h26v-264z" />
    <glyph glyph-name="i" unicode="i" horiz-adv-x="207" 
d="M103 721q18 0 22.5 -9.5t4.5 -21.5q0 -13 -4.5 -22t-22.5 -9q-15 0 -20 9t-5 22q0 12 5 21.5t20 9.5zM116 528v-528h-26v528h26z" />
    <glyph glyph-name="j" unicode="j" horiz-adv-x="207" 
d="M78 690q0 12 5 21.5t20 9.5q18 0 22.5 -9.5t4.5 -21.5q0 -13 -4.5 -22t-22.5 -9q-15 0 -20 9t-5 22zM11 -240q-19 0 -34 3t-27 7v26q15 -7 30.5 -9t30.5 -2q40 0 59.5 26.5t19.5 72.5v644h26v-648q0 -61 -31 -90.5t-74 -29.5z" />
    <glyph glyph-name="k" unicode="k" horiz-adv-x="454" 
d="M116 385v-91t-1 -90q17 19 29 32.5l28 31.5l233 260h34l-205 -227l225 -301h-31l-212 283l-100 -111v-172h-26v760h26v-375z" />
    <glyph glyph-name="l" unicode="l" horiz-adv-x="207" 
d="M117 0h-26v760h26v-760z" />
    <glyph glyph-name="m" unicode="m" horiz-adv-x="852" 
d="M614 538q68 0 112 -43t44 -134v-361h-26v360q0 80 -37.5 116.5t-92.5 36.5q-75 0 -123 -43.5t-48 -144.5v-325h-26v360q0 80 -37.5 116.5t-92.5 36.5q-46 0 -85 -19t-62.5 -60.5t-23.5 -108.5v-325h-26v528h21l4 -96h2q11 25 31 49t54 40.5t85 16.5q55 0 94 -28t52 -81h2
q19 49 63.5 79t115.5 30z" />
    <glyph glyph-name="n" unicode="n" horiz-adv-x="573" 
d="M309 538q86 0 133 -47t47 -145v-346h-26v345q0 88 -40.5 128t-113.5 40q-86 0 -139.5 -51.5t-53.5 -159.5v-302h-26v528h21l4 -111h2q12 31 35.5 58.5t62 45t94.5 17.5z" />
    <glyph glyph-name="o" unicode="o" horiz-adv-x="575" 
d="M515 264q0 -77 -24.5 -139.5t-75 -98.5t-129.5 -36q-76 0 -126.5 36t-75.5 98t-25 140q0 126 61.5 200t171.5 74q80 0 129 -36.5t71.5 -98.5t22.5 -139zM86 264q0 -73 22 -129.5t66.5 -88t111.5 -31.5q70 0 114.5 32t66 88.5t21.5 128.5q0 69 -19.5 125.5t-62.5 90
t-114 33.5q-99 0 -152.5 -66t-53.5 -183z" />
    <glyph glyph-name="p" unicode="p" horiz-adv-x="583" 
d="M313 538q105 0 159 -68.5t54 -200.5q0 -133 -58.5 -206t-164.5 -73q-79 0 -124 37t-62 89h-2q2 -34 2 -66.5v-64.5v-217h-26v760h22l2 -126h2q11 35 36 66t65 50.5t95 19.5zM313 513q-96 0 -146 -65.5t-50 -182.5v-3q0 -127 50.5 -187t135.5 -60q92 0 144 64t52 190
q0 124 -47 184t-139 60z" />
    <glyph glyph-name="q" unicode="q" horiz-adv-x="583" 
d="M465 3q0 24 0.5 59t1.5 60h-2q-16 -58 -68 -95.5t-128 -37.5q-105 0 -159 70t-54 203q0 76 23.5 138.5t74.5 100t131 37.5q71 0 116 -33.5t62 -80.5h2l4 104h22v-760h-26v235zM269 14q101 0 148.5 67t47.5 184v10q0 116 -44.5 177t-135.5 61q-99 0 -150.5 -65.5
t-51.5 -185.5q0 -248 186 -248z" />
    <glyph glyph-name="r" unicode="r" horiz-adv-x="375" 
d="M278 536q24 0 43.5 -3t37.5 -8l-6 -24q-19 5 -35.5 7.5t-39.5 2.5q-83 0 -122 -58t-39 -156v-297h-26v528h24l2 -101h2q14 46 54.5 77.5t104.5 31.5z" />
    <glyph glyph-name="s" unicode="s" horiz-adv-x="458" 
d="M411 134q0 -67 -49.5 -105.5t-148.5 -38.5q-55 0 -100 10.5t-74 23.5v30q80 -39 174 -39q91 0 131 32t40 87q0 39 -21.5 62.5t-58 38t-80.5 27.5q-46 14 -84.5 28.5t-61 41t-22.5 75.5q0 62 49 96.5t133 34.5q47 0 88 -8.5t72 -21.5l-11 -25q-28 14 -68.5 22t-80.5 8
q-72 0 -113.5 -26.5t-41.5 -79.5q0 -41 20.5 -62.5t55 -33.5t74.5 -25q44 -14 85 -30t67 -43.5t26 -78.5z" />
    <glyph glyph-name="t" unicode="t" horiz-adv-x="319" 
d="M212 15q25 0 44 3.5t35 9.5v-25q-16 -5 -34.5 -9t-44.5 -4q-70 0 -95.5 40t-25.5 110v363h-81v22l80 3l6 131h21v-131h172v-25h-172v-360q0 -61 20 -94.5t75 -33.5z" />
    <glyph glyph-name="u" unicode="u" horiz-adv-x="573" 
d="M481 528v-528h-21l-4 111h-2q-11 -30 -35 -58t-62.5 -45.5t-94.5 -17.5q-88 0 -134 49t-46 143v346h26v-342q0 -88 40 -129.5t114 -41.5q86 0 139.5 51.5t53.5 159.5v302h26z" />
    <glyph glyph-name="v" unicode="v" horiz-adv-x="430" 
d="M204 0l-204 528h27l150 -390q13 -32 21 -54.5t16 -47.5h2q9 25 16.5 47.5t20.5 54.5l150 390h27l-204 -528h-22z" />
    <glyph glyph-name="w" unicode="w" horiz-adv-x="685" 
d="M380 388q-8 26 -14.5 46.5t-14.5 47.5h-2q-14 -50 -29 -94l-129 -389h-22l-153 528h29l105 -371q13 -46 19 -69t11 -46h2q6 23 12.5 46t21.5 69l125 371h21l119 -370q23 -73 34 -116h2q3 23 9.5 47.5t17.5 67.5l99 371h26l-141 -528h-22z" />
    <glyph glyph-name="x" unicode="x" horiz-adv-x="479" 
d="M219 272l-185 256h33l169 -238l169 238h32l-183 -256l195 -272h-32l-181 253l-179 -253h-31z" />
    <glyph glyph-name="y" unicode="y" horiz-adv-x="428" 
d="M0 528h27l137 -356q18 -48 30.5 -81t19.5 -54h2q8 22 19.5 54t28.5 77l139 360h27l-249 -643q-25 -65 -54.5 -96.5t-78.5 -31.5q-27 0 -54 10v26q14 -5 26 -8t28 -3q38 0 62.5 26t49.5 90l41 108z" />
    <glyph glyph-name="z" unicode="z" horiz-adv-x="456" 
d="M412 0h-371v17l336 486h-309v25h347v-15l-338 -488h335v-25z" />
    <glyph glyph-name="braceleft" unicode="{" horiz-adv-x="337" 
d="M300 -158q-82 0 -123 35t-41 100v171q0 62 -25 90t-85 28v24q60 0 85 27t25 91v171q0 65 41 100t123 35v-25q-71 0 -104 -27.5t-33 -88.5v-169q0 -51 -17.5 -84t-61.5 -41v-2q44 -8 61.5 -41t17.5 -84v-172q0 -58 33 -85.5t104 -27.5v-25z" />
    <glyph glyph-name="bar" unicode="|" horiz-adv-x="535" 
d="M253 763h25v-1014h-25v1014z" />
    <glyph glyph-name="braceright" unicode="}" horiz-adv-x="337" 
d="M36 -133q71 0 104 27.5t33 85.5v172q0 51 17.5 84t61.5 41v2q-44 8 -61.5 41t-17.5 84v169q0 61 -33 88.5t-104 27.5v25q82 0 123 -35t41 -100v-171q0 -64 25 -91t85 -27v-24q-60 0 -85 -28t-25 -90v-171q0 -65 -41 -100t-123 -35v25z" />
    <glyph glyph-name="asciitilde" unicode="~" horiz-adv-x="570" 
d="M282 342q-27 14 -50.5 22.5t-58.5 8.5q-29 0 -58.5 -12.5t-58.5 -42.5v31q23 22 53.5 35t63.5 13q42 0 68 -9.5t54 -23.5q27 -13 50.5 -22t54.5 -9q27 0 55.5 11.5t58.5 42.5v-29q-19 -20 -48.5 -34.5t-65.5 -14.5t-62 9t-56 24z" />
    <glyph glyph-name="uni00A0" unicode="&#xa0;" horiz-adv-x="260" 
 />
    <glyph glyph-name="exclamdown" unicode="&#xa1;" horiz-adv-x="223" 
d="M137 505q0 -12 -5 -21.5t-20 -9.5q-18 0 -22.5 9.5t-4.5 21.5q0 13 4.5 22t22.5 9q15 0 20 -9t5 -22zM98 354h24l2 -540h-28z" />
    <glyph glyph-name="cent" unicode="&#xa2;" horiz-adv-x="570" 
d="M338 638q40 0 70 -5.5t60 -18.5l-5 -25q-30 14 -59.5 19t-58.5 5q-72 0 -124 -32t-80.5 -89t-28.5 -131q0 -68 22.5 -124t70 -89t123.5 -33q36 0 71.5 7t64.5 19v-25q-23 -10 -55.5 -17.5t-70.5 -8.5v-100h-25v100q-79 4 -129.5 40t-74.5 96t-24 135t27 134.5t78 96.5
t123 44v88h25v-86z" />
    <glyph glyph-name="sterling" unicode="&#xa3;" horiz-adv-x="570" 
d="M344 723q47 0 82.5 -8.5t64.5 -20.5l-9 -25q-33 14 -64.5 21.5t-73.5 7.5q-77 0 -115 -45.5t-38 -140.5v-152h199v-25h-199v-147q0 -70 -22.5 -108t-57.5 -55h407v-25h-476v23q61 11 92 51t31 113v148h-107v25h107v156q0 104 46 155.5t133 51.5z" />
    <glyph glyph-name="currency" unicode="&#xa4;" horiz-adv-x="570" 
d="M84 354q0 36 12.5 71t37.5 63l-77 78l15 16l78 -78q29 26 63.5 38.5t70.5 12.5t71.5 -12.5t63.5 -38.5l77 77l15 -16l-77 -77q26 -28 38.5 -63t12.5 -71t-12.5 -70.5t-38.5 -63.5l78 -78l-16 -16l-77 78q-28 -25 -63.5 -38t-71.5 -13t-70.5 13t-63.5 38l-78 -78l-15 16
l77 78q-25 29 -37.5 63.5t-12.5 70.5zM106 354q0 -51 24.5 -91.5t65 -64t87.5 -23.5q50 0 90.5 24.5t65 65.5t24.5 90t-24.5 89t-64.5 64.5t-89 24.5t-89.5 -24t-65 -64.5t-24.5 -90.5z" />
    <glyph glyph-name="yen" unicode="&#xa5;" horiz-adv-x="570" 
d="M286 336l228 378h31l-239 -391h168v-25h-175v-111h175v-25h-175v-162h-26v162h-176v25h176v111h-176v25h167l-239 391h31z" />
    <glyph glyph-name="brokenbar" unicode="&#xa6;" horiz-adv-x="535" 
d="M253 763h25v-368h-25v368zM253 118h25v-369h-25v369z" />
    <glyph glyph-name="section" unicode="&#xa7;" horiz-adv-x="518" 
d="M82 395q0 49 30 80t78 47q-44 16 -73 39.5t-29 71.5q0 59 47 92.5t128 33.5q45 0 84 -8t70 -21l-11 -24q-27 14 -66 21.5t-77 7.5q-70 0 -109.5 -25.5t-39.5 -76.5q0 -34 20 -52.5t52.5 -29.5t71.5 -24q43 -13 82 -28.5t64 -42t25 -75.5q0 -48 -26 -82.5t-66 -54.5
q37 -16 61.5 -41t24.5 -70q0 -61 -47.5 -97.5t-142.5 -36.5q-52 0 -96 10.5t-72 22.5v29q78 -38 168 -38q87 0 125.5 30.5t38.5 79.5q0 35 -21 56.5t-55.5 35.5t-77.5 26q-44 14 -81 29t-58.5 41.5t-21.5 73.5zM108 395q0 -39 19.5 -61t52 -34.5t71.5 -25.5l60 -19
q42 17 67 50t25 76q0 55 -46.5 82t-131.5 48q-49 -13 -83 -40t-34 -76z" />
    <glyph glyph-name="dieresis" unicode="&#xa8;" horiz-adv-x="575" 
d="M170 678q0 12 5 21.5t18 9.5q17 0 21 -9.5t4 -21.5q0 -13 -4 -22t-21 -9q-13 0 -18 9t-5 22zM355 678q0 12 5 21.5t18 9.5q17 0 21 -9.5t4 -21.5q0 -13 -4 -22t-21 -9q-13 0 -18 9t-5 22z" />
    <glyph glyph-name="copyright" unicode="&#xa9;" horiz-adv-x="832" 
d="M416 -8q-80 0 -147 28.5t-116 79t-76 116.5t-27 141q0 78 29 144.5t79.5 116t116.5 77t141 27.5q80 0 147 -30t116 -81.5t76 -117t27 -136.5q0 -75 -28.5 -141.5t-79 -116.5t-117 -78.5t-141.5 -28.5zM416 17q73 0 135 27.5t108 75t71.5 108.5t25.5 129q0 69 -25.5 130
t-71.5 108.5t-108 74.5t-135 27q-72 0 -133.5 -26.5t-108 -73t-72.5 -108t-26 -132.5q0 -69 24.5 -130.5t69.5 -108.5t107.5 -74t138.5 -27zM435 143q-92 0 -148.5 53t-56.5 160q0 66 26.5 114.5t74 75t108.5 26.5q44 0 72.5 -7t53.5 -19l-11 -23q-23 11 -50 17t-65 6
q-80 0 -131 -51t-51 -139q0 -94 51 -141t127 -47q35 0 60 4.5t55 15.5v-24q-25 -10 -53 -15.5t-62 -5.5z" />
    <glyph glyph-name="ordfeminine" unicode="&#xaa;" horiz-adv-x="322" 
d="M169 722q50 0 74.5 -26t24.5 -74v-220h-23l-4 47q-11 -22 -36 -36.5t-62 -14.5q-47 0 -74.5 22t-27.5 66q0 47 38 71t118 28l45 2v31q0 41 -19.5 60t-54.5 19q-48 0 -94 -25l-10 24q23 11 50 18.5t55 7.5zM196 560q-65 -3 -96.5 -19t-31.5 -55q0 -63 76 -63
q49 0 73.5 27.5t24.5 76.5v35z" />
    <glyph glyph-name="guillemotleft" unicode="&#xab;" horiz-adv-x="389" 
d="M26 285l152 187l16 -12l-137 -181l137 -181l-16 -11l-152 185v13zM195 285l152 187l16 -12l-137 -181l137 -181l-16 -11l-152 185v13z" />
    <glyph glyph-name="logicalnot" unicode="&#xac;" horiz-adv-x="570" 
d="M498 365v-233h-24v209h-419v24h443z" />
    <glyph glyph-name="uni00AD" unicode="&#xad;" horiz-adv-x="322" 
d="M40 259v25h242v-25h-242z" />
    <glyph glyph-name="registered" unicode="&#xae;" horiz-adv-x="832" 
d="M416 -8q-80 0 -147 28.5t-116 79t-76 116.5t-27 141q0 78 29 144.5t79.5 116t116.5 77t141 27.5q80 0 147 -30t116 -81.5t76 -117t27 -136.5q0 -75 -28.5 -141.5t-79 -116.5t-117 -78.5t-141.5 -28.5zM416 17q73 0 135 27.5t108 75t71.5 108.5t25.5 129q0 69 -25.5 130
t-71.5 108.5t-108 74.5t-135 27q-72 0 -133.5 -26.5t-108 -73t-72.5 -108t-26 -132.5q0 -69 24.5 -130.5t69.5 -108.5t107.5 -74t138.5 -27zM298 143v426h118q62 0 101 -28.5t39 -91.5q0 -49 -26.5 -78.5t-66.5 -41.5l114 -186h-32l-109 181h-113v-181h-25zM412 346
q50 0 85 24.5t35 78.5q0 51 -33 73.5t-85 22.5h-92v-199h90z" />
    <glyph glyph-name="overscore" unicode="&#xaf;" horiz-adv-x="500" 
d="M503 760h-506v25h506v-25z" />
    <glyph glyph-name="degree" unicode="&#xb0;" horiz-adv-x="428" 
d="M214 441q-60 0 -101.5 38.5t-41.5 103.5q0 64 41 102.5t102 38.5q62 0 102.5 -39.5t40.5 -101.5q0 -65 -40.5 -103.5t-102.5 -38.5zM213 466q51 0 84 33t33 84q0 53 -33 84.5t-84 31.5q-52 0 -83.5 -31.5t-31.5 -84.5q0 -51 31.5 -84t83.5 -33z" />
    <glyph glyph-name="plusminus" unicode="&#xb1;" horiz-adv-x="570" 
d="M297 365h218v-24h-218v-218h-24v218h-218v24h218v218h24v-218zM55 0v24h460v-24h-460z" />
    <glyph glyph-name="uni00B2" unicode="&#xb2;" horiz-adv-x="328" 
d="M307 416h-280v21l123 126q54 56 86 94.5t32 83.5q0 39 -25 64t-74 25q-31 0 -58 -10t-55 -31l-13 20q55 46 126 46q60 0 93 -32t33 -82q0 -35 -15.5 -64t-44 -59.5t-68.5 -71.5l-103 -105h243v-25z" />
    <glyph glyph-name="uni00B3" unicode="&#xb3;" horiz-adv-x="328" 
d="M170 851q56 0 90 -27t34 -77q0 -42 -21.5 -68.5t-54.5 -34.5v-2q41 -9 63.5 -34.5t22.5 -68.5q0 -61 -40.5 -94t-112.5 -33q-35 0 -67 7t-58 18v28q30 -13 60.5 -20.5t64.5 -7.5q62 0 94 27t32 75q0 89 -121 89h-67v25h67q53 0 82 24.5t29 69.5q0 36 -25 57.5t-72 21.5
q-37 0 -66.5 -10.5t-58.5 -27.5l-10 22q28 19 61.5 30t73.5 11z" />
    <glyph glyph-name="acute" unicode="&#xb4;" horiz-adv-x="249" 
d="M209 759q-26 -34 -67 -77t-81 -76h-21v6q23 20 49.5 48t51 56.5t38.5 49.5h30v-7z" />
    <glyph glyph-name="uni00B5" unicode="&#xb5;" horiz-adv-x="580" 
d="M489 528v-528h-23l-3 94h-2q-13 -28 -33 -51.5t-54.5 -38t-91.5 -14.5q-66 0 -106.5 22t-58.5 59h-2v-311h-25v768h25v-343q0 -170 167 -170q101 0 141.5 55.5t40.5 156.5v301h25z" />
    <glyph glyph-name="paragraph" unicode="&#xb6;" horiz-adv-x="655" 
d="M517 -127h-26v862h-134v-862h-26v482q-16 -4 -32.5 -6.5t-38.5 -2.5q-55 0 -92 28t-55 76t-18 107q0 96 44 149.5t136 53.5h242v-887z" />
    <glyph glyph-name="periodcentered" unicode="&#xb7;" horiz-adv-x="220" 
d="M85 314q0 12 5 21.5t20 9.5q18 0 22.5 -9.5t4.5 -21.5q0 -13 -4.5 -22t-22.5 -9q-15 0 -20 9t-5 22z" />
    <glyph glyph-name="cedilla" unicode="&#xb8;" horiz-adv-x="193" 
d="M180 -145q0 -43 -32 -69t-81 -26q-34 0 -57 6v24q13 -4 25.5 -5t31.5 -1q38 0 63 18t25 52q0 32 -25 46.5t-78 14.5l44 85h25l-33 -65q44 -2 68 -23t24 -57z" />
    <glyph glyph-name="uni00B9" unicode="&#xb9;" horiz-adv-x="328" 
d="M193 844v-428h-26v280v60.5t1 58.5q-17 -11 -33 -19.5t-40 -21.5l-47 -25l-11 22l136 73h20z" />
    <glyph glyph-name="ordmasculine" unicode="&#xba;" horiz-adv-x="352" 
d="M318 560q0 -70 -35 -117.5t-106 -47.5q-69 0 -104.5 47.5t-35.5 117.5q0 76 38.5 120.5t104.5 44.5q48 0 78.5 -22t45 -59.5t14.5 -83.5zM64 560q0 -61 28.5 -100.5t84.5 -39.5q59 0 86.5 40t27.5 100q0 57 -26 98.5t-85 41.5q-55 0 -85.5 -37.5t-30.5 -102.5z" />
    <glyph glyph-name="guillemotright" unicode="&#xbb;" horiz-adv-x="389" 
d="M363 274l-152 -187l-16 12l137 181l-137 181l16 11l152 -185v-13zM194 274l-152 -187l-16 12l137 181l-137 181l16 11l152 -185v-13z" />
    <glyph glyph-name="onequarter" unicode="&#xbc;" horiz-adv-x="698" 
d="M147 0l372 714h28l-372 -714h-28zM146 566v60.5t1 58.5q-17 -11 -33 -19.5t-40 -21.5l-47 -25l-11 22l136 73h20v-428h-26v280zM590 0v131h-204v18l201 282h28v-276h74v-24h-74v-131h-25zM418 155h172v164v44t1 39q-10 -16 -16.5 -26.5t-17.5 -25.5z" />
    <glyph glyph-name="onehalf" unicode="&#xbd;" horiz-adv-x="744" 
d="M147 0l372 714h28l-372 -714h-28zM146 566v60.5t1 58.5q-17 -11 -33 -19.5t-40 -21.5l-47 -25l-11 22l136 73h20v-428h-26v280zM443 0v21l123 126q54 56 86 94.5t32 83.5q0 39 -25 64t-74 25q-31 0 -58 -10t-55 -31l-13 20q55 46 126 46q60 0 93 -32t33 -82
q0 -35 -15.5 -64t-44 -59.5t-68.5 -71.5l-103 -105h243v-25h-280z" />
    <glyph glyph-name="threequarters" unicode="&#xbe;" horiz-adv-x="758" 
d="M151 282q-35 0 -67 7t-58 18v28q30 -13 60.5 -20.5t64.5 -7.5q62 0 94 27t32 75q0 89 -121 89h-67v25h67q53 0 82 24.5t29 69.5q0 36 -25 57.5t-72 21.5q-37 0 -66.5 -10.5t-58.5 -27.5l-10 22q28 19 61.5 30t73.5 11q56 0 90 -27t34 -77q0 -42 -21.5 -68.5t-54.5 -34.5
v-2q41 -9 63.5 -34.5t22.5 -68.5q0 -61 -40.5 -94t-112.5 -33zM207 0l372 714h28l-372 -714h-28zM650 0v131h-204v18l201 282h28v-276h74v-24h-74v-131h-25zM478 155h172v164v44t1 39q-10 -16 -16.5 -26.5t-17.5 -25.5z" />
    <glyph glyph-name="questiondown" unicode="&#xbf;" horiz-adv-x="413" 
d="M283 509q0 -12 -5 -21.5t-20 -9.5q-18 0 -22.5 9.5t-4.5 21.5q0 13 4.5 22t22.5 9q15 0 20 -9t5 -22zM272 346q0 -49 -7 -81t-25 -55.5t-53 -48.5q-36 -25 -62.5 -50t-41 -56t-14.5 -77q0 -75 44.5 -110t114.5 -35q37 0 70.5 8t69.5 26l10 -26q-43 -18 -76 -25.5
t-74 -7.5q-84 0 -135 42.5t-51 127.5q0 50 16.5 85.5t46.5 63.5t69 55t56 61.5t17 102.5v12h25v-12z" />
    <glyph glyph-name="Agrave" unicode="&#xc0;" horiz-adv-x="577" 
d="M549 0l-104 271h-310l-107 -271h-28l282 716h25l270 -716h-28zM325 594q-6 17 -14 38.5t-18 49.5q-7 -22 -16 -45.5t-17 -43.5l-116 -297h291zM235 952q15 -21 39 -49.5t51 -56.5t49 -48v-6h-21q-40 33 -81 76t-67 77v7h30z" />
    <glyph glyph-name="Aacute" unicode="&#xc1;" horiz-adv-x="577" 
d="M549 0l-104 271h-310l-107 -271h-28l282 716h25l270 -716h-28zM325 594q-6 17 -14 38.5t-18 49.5q-7 -22 -16 -45.5t-17 -43.5l-116 -297h291zM414 945q-26 -34 -67 -77t-81 -76h-21v6q23 20 49.5 48t51 56.5t38.5 49.5h30v-7z" />
    <glyph glyph-name="Acircumflex" unicode="&#xc2;" horiz-adv-x="577" 
d="M549 0l-104 271h-310l-107 -271h-28l282 716h25l270 -716h-28zM325 594q-6 17 -14 38.5t-18 49.5q-7 -22 -16 -45.5t-17 -43.5l-116 -297h291zM301 949q12 -20 32 -47.5t42 -55t40 -48.5v-6h-21q-28 28 -55.5 62.5t-48.5 62.5q-21 -28 -49.5 -62.5t-56.5 -62.5h-21v6
q19 21 41 48.5t42.5 55t32.5 47.5h22z" />
    <glyph glyph-name="Atilde" unicode="&#xc3;" horiz-adv-x="577" 
d="M549 0l-104 271h-310l-107 -271h-28l282 716h25l270 -716h-28zM325 594q-6 17 -14 38.5t-18 49.5q-7 -22 -16 -45.5t-17 -43.5l-116 -297h291zM127 804q4 50 27.5 74t61.5 24q25 0 43.5 -11.5t34 -26t32 -26t36.5 -11.5q22 0 41.5 14.5t23.5 60.5h25q-4 -49 -28.5 -74
t-62.5 -25q-25 0 -43.5 11.5t-34 26t-31.5 26t-38 11.5q-20 0 -38.5 -14.5t-23.5 -59.5h-25z" />
    <glyph glyph-name="Adieresis" unicode="&#xc4;" horiz-adv-x="577" 
d="M549 0l-104 271h-310l-107 -271h-28l282 716h25l270 -716h-28zM325 594q-6 17 -14 38.5t-18 49.5q-7 -22 -16 -45.5t-17 -43.5l-116 -297h291zM173 864q0 12 5 21.5t18 9.5q17 0 21 -9.5t4 -21.5q0 -13 -4 -22t-21 -9q-13 0 -18 9t-5 22zM358 864q0 12 5 21.5t18 9.5
q17 0 21 -9.5t4 -21.5q0 -13 -4 -22t-21 -9q-13 0 -18 9t-5 22z" />
    <glyph glyph-name="Aring" unicode="&#xc5;" horiz-adv-x="577" 
d="M549 0l-104 271h-310l-107 -271h-28l282 716h25l270 -716h-28zM325 594q-6 17 -14 38.5t-18 49.5q-7 -22 -16 -45.5t-17 -43.5l-116 -297h291zM292 696q-40 0 -70.5 27.5t-30.5 72.5q0 43 30 71.5t71 28.5t70.5 -29.5t29.5 -70.5q0 -44 -29.5 -72t-70.5 -28zM292 720
q34 0 55 22.5t21 53.5q0 32 -22.5 54t-53.5 22q-33 0 -55 -22t-22 -54q0 -31 21.5 -53.5t55.5 -22.5z" />
    <glyph glyph-name="AE" unicode="&#xc6;" horiz-adv-x="763" 
d="M750 0h-385v270h-221l-114 -270h-31l307 714h444v-25h-359v-300h339v-25h-339v-339h359v-25zM156 295h209v394h-42z" />
    <glyph glyph-name="Ccedilla" unicode="&#xc7;" horiz-adv-x="614" 
d="M405 699q-100 0 -170.5 -44t-107.5 -120.5t-37 -174.5q0 -103 33 -181t99 -121t164 -43q58 0 103 8t81 21v-23q-33 -13 -79 -22t-105 -9q-106 0 -178 46.5t-108.5 129.5t-36.5 194q0 104 41 186.5t117.5 130t183.5 47.5q97 0 178 -37l-10 -25q-43 23 -85 30t-83 7z
M439 -145q0 -43 -32 -69t-81 -26q-34 0 -57 6v24q13 -4 25.5 -5t31.5 -1q38 0 63 18t25 52q0 32 -25 46.5t-78 14.5l44 85h25l-33 -65q44 -2 68 -23t24 -57z" />
    <glyph glyph-name="Egrave" unicode="&#xc8;" horiz-adv-x="550" 
d="M488 0h-385v714h385v-25h-359v-300h339v-25h-339v-339h359v-25zM251 952q15 -21 39 -49.5t51 -56.5t49 -48v-6h-21q-40 33 -81 76t-67 77v7h30z" />
    <glyph glyph-name="Eacute" unicode="&#xc9;" horiz-adv-x="550" 
d="M488 0h-385v714h385v-25h-359v-300h339v-25h-339v-339h359v-25zM430 945q-26 -34 -67 -77t-81 -76h-21v6q23 20 49.5 48t51 56.5t38.5 49.5h30v-7z" />
    <glyph glyph-name="Ecircumflex" unicode="&#xca;" horiz-adv-x="550" 
d="M488 0h-385v714h385v-25h-359v-300h339v-25h-339v-339h359v-25zM317 949q12 -20 32 -47.5t42 -55t40 -48.5v-6h-21q-28 28 -55.5 62.5t-48.5 62.5q-21 -28 -49.5 -62.5t-56.5 -62.5h-21v6q19 21 41 48.5t42.5 55t32.5 47.5h22z" />
    <glyph glyph-name="Edieresis" unicode="&#xcb;" horiz-adv-x="550" 
d="M488 0h-385v714h385v-25h-359v-300h339v-25h-339v-339h359v-25zM189 864q0 12 5 21.5t18 9.5q17 0 21 -9.5t4 -21.5q0 -13 -4 -22t-21 -9q-13 0 -18 9t-5 22zM374 864q0 12 5 21.5t18 9.5q17 0 21 -9.5t4 -21.5q0 -13 -4 -22t-21 -9q-13 0 -18 9t-5 22z" />
    <glyph glyph-name="Igrave" unicode="&#xcc;" horiz-adv-x="283" 
d="M223 0h-162v20l68 3v667l-68 4v20h162v-20l-68 -4v-667l68 -3v-20zM88 952q15 -21 39 -49.5t51 -56.5t49 -48v-6h-21q-40 33 -81 76t-67 77v7h30z" />
    <glyph glyph-name="Iacute" unicode="&#xcd;" horiz-adv-x="283" 
d="M223 0h-162v20l68 3v667l-68 4v20h162v-20l-68 -4v-667l68 -3v-20zM267 945q-26 -34 -67 -77t-81 -76h-21v6q23 20 49.5 48t51 56.5t38.5 49.5h30v-7z" />
    <glyph glyph-name="Icircumflex" unicode="&#xce;" horiz-adv-x="283" 
d="M223 0h-162v20l68 3v667l-68 4v20h162v-20l-68 -4v-667l68 -3v-20zM154 949q12 -20 32 -47.5t42 -55t40 -48.5v-6h-21q-28 28 -55.5 62.5t-48.5 62.5q-21 -28 -49.5 -62.5t-56.5 -62.5h-21v6q19 21 41 48.5t42.5 55t32.5 47.5h22z" />
    <glyph glyph-name="Idieresis" unicode="&#xcf;" horiz-adv-x="283" 
d="M223 0h-162v20l68 3v667l-68 4v20h162v-20l-68 -4v-667l68 -3v-20zM26 864q0 12 5 21.5t18 9.5q17 0 21 -9.5t4 -21.5q0 -13 -4 -22t-21 -9q-13 0 -18 9t-5 22zM211 864q0 12 5 21.5t18 9.5q17 0 21 -9.5t4 -21.5q0 -13 -4 -22t-21 -9q-13 0 -18 9t-5 22z" />
    <glyph glyph-name="Eth" unicode="&#xd0;" horiz-adv-x="692" 
d="M280 714q177 0 262.5 -90t85.5 -260q0 -179 -91.5 -271.5t-279.5 -92.5h-154v343h-86v25h86v346h177zM270 689h-141v-321h206v-25h-206v-318h131q341 0 341 338q0 159 -78.5 242.5t-252.5 83.5z" />
    <glyph glyph-name="Ntilde" unicode="&#xd1;" horiz-adv-x="698" 
d="M594 0h-19l-445 655h-2q1 -43 1 -78v-75v-502h-26v714h20l444 -653h2q-1 38 -1 77v73v503h26v-714zM187 804q4 50 27.5 74t61.5 24q25 0 43.5 -11.5t34 -26t32 -26t36.5 -11.5q22 0 41.5 14.5t23.5 60.5h25q-4 -49 -28.5 -74t-62.5 -25q-25 0 -43.5 11.5t-34 26t-31.5 26
t-38 11.5q-20 0 -38.5 -14.5t-23.5 -59.5h-25z" />
    <glyph glyph-name="Ograve" unicode="&#xd2;" horiz-adv-x="754" 
d="M690 358q0 -108 -34.5 -191t-104 -130t-175.5 -47q-104 0 -173.5 47.5t-104.5 130.5t-35 191t37 190.5t108.5 129t173.5 46.5q148 0 228 -96.5t80 -270.5zM90 359q0 -100 31 -177.5t95 -122t161 -44.5q98 0 161.5 43.5t94 121t30.5 178.5q0 163 -73 252.5t-208 89.5
q-98 0 -163 -44t-97 -121t-32 -176zM323 952q15 -21 39 -49.5t51 -56.5t49 -48v-6h-21q-40 33 -81 76t-67 77v7h30z" />
    <glyph glyph-name="Oacute" unicode="&#xd3;" horiz-adv-x="754" 
d="M690 358q0 -108 -34.5 -191t-104 -130t-175.5 -47q-104 0 -173.5 47.5t-104.5 130.5t-35 191t37 190.5t108.5 129t173.5 46.5q148 0 228 -96.5t80 -270.5zM90 359q0 -100 31 -177.5t95 -122t161 -44.5q98 0 161.5 43.5t94 121t30.5 178.5q0 163 -73 252.5t-208 89.5
q-98 0 -163 -44t-97 -121t-32 -176zM502 945q-26 -34 -67 -77t-81 -76h-21v6q23 20 49.5 48t51 56.5t38.5 49.5h30v-7z" />
    <glyph glyph-name="Ocircumflex" unicode="&#xd4;" horiz-adv-x="754" 
d="M690 358q0 -108 -34.5 -191t-104 -130t-175.5 -47q-104 0 -173.5 47.5t-104.5 130.5t-35 191t37 190.5t108.5 129t173.5 46.5q148 0 228 -96.5t80 -270.5zM90 359q0 -100 31 -177.5t95 -122t161 -44.5q98 0 161.5 43.5t94 121t30.5 178.5q0 163 -73 252.5t-208 89.5
q-98 0 -163 -44t-97 -121t-32 -176zM389 949q12 -20 32 -47.5t42 -55t40 -48.5v-6h-21q-28 28 -55.5 62.5t-48.5 62.5q-21 -28 -49.5 -62.5t-56.5 -62.5h-21v6q19 21 41 48.5t42.5 55t32.5 47.5h22z" />
    <glyph glyph-name="Otilde" unicode="&#xd5;" horiz-adv-x="754" 
d="M690 358q0 -108 -34.5 -191t-104 -130t-175.5 -47q-104 0 -173.5 47.5t-104.5 130.5t-35 191t37 190.5t108.5 129t173.5 46.5q148 0 228 -96.5t80 -270.5zM90 359q0 -100 31 -177.5t95 -122t161 -44.5q98 0 161.5 43.5t94 121t30.5 178.5q0 163 -73 252.5t-208 89.5
q-98 0 -163 -44t-97 -121t-32 -176zM215 804q4 50 27.5 74t61.5 24q25 0 43.5 -11.5t34 -26t32 -26t36.5 -11.5q22 0 41.5 14.5t23.5 60.5h25q-4 -49 -28.5 -74t-62.5 -25q-25 0 -43.5 11.5t-34 26t-31.5 26t-38 11.5q-20 0 -38.5 -14.5t-23.5 -59.5h-25z" />
    <glyph glyph-name="Odieresis" unicode="&#xd6;" horiz-adv-x="754" 
d="M690 358q0 -108 -34.5 -191t-104 -130t-175.5 -47q-104 0 -173.5 47.5t-104.5 130.5t-35 191t37 190.5t108.5 129t173.5 46.5q148 0 228 -96.5t80 -270.5zM90 359q0 -100 31 -177.5t95 -122t161 -44.5q98 0 161.5 43.5t94 121t30.5 178.5q0 163 -73 252.5t-208 89.5
q-98 0 -163 -44t-97 -121t-32 -176zM261 864q0 12 5 21.5t18 9.5q17 0 21 -9.5t4 -21.5q0 -13 -4 -22t-21 -9q-13 0 -18 9t-5 22zM446 864q0 12 5 21.5t18 9.5q17 0 21 -9.5t4 -21.5q0 -13 -4 -22t-21 -9q-13 0 -18 9t-5 22z" />
    <glyph glyph-name="multiply" unicode="&#xd7;" horiz-adv-x="570" 
d="M482 567l17 -17l-197 -197l197 -197l-17 -17l-197 197l-197 -197l-17 17l197 197l-197 197l17 17l197 -197z" />
    <glyph glyph-name="Oslash" unicode="&#xd8;" horiz-adv-x="754" 
d="M690 358q0 -108 -34.5 -191t-104 -130t-175.5 -47q-64 0 -115.5 19t-89.5 54l-66 -89l-20 15l68 92q-44 50 -67 121t-23 157q0 108 37 190.5t108.5 129t173.5 46.5q120 0 197 -66l60 81l20 -15l-61 -83q44 -47 68 -119t24 -165zM90 359q0 -79 19.5 -144.5t58.5 -112.5
l396 536q-34 30 -80 46t-102 16q-98 0 -163 -44t-97 -121t-32 -176zM663 358q0 173 -81 262l-396 -536q35 -33 82.5 -51t108.5 -18q98 0 161.5 43.5t94 121t30.5 178.5z" />
    <glyph glyph-name="Ugrave" unicode="&#xd9;" horiz-adv-x="712" 
d="M618 252q0 -89 -33.5 -147t-92.5 -86.5t-137 -28.5q-124 0 -192 67t-68 197v460h26v-458q0 -120 61.5 -180.5t173.5 -60.5q107 0 171.5 57.5t64.5 171.5v470h26v-462zM302 952q15 -21 39 -49.5t51 -56.5t49 -48v-6h-21q-40 33 -81 76t-67 77v7h30z" />
    <glyph glyph-name="Uacute" unicode="&#xda;" horiz-adv-x="712" 
d="M618 252q0 -89 -33.5 -147t-92.5 -86.5t-137 -28.5q-124 0 -192 67t-68 197v460h26v-458q0 -120 61.5 -180.5t173.5 -60.5q107 0 171.5 57.5t64.5 171.5v470h26v-462zM481 945q-26 -34 -67 -77t-81 -76h-21v6q23 20 49.5 48t51 56.5t38.5 49.5h30v-7z" />
    <glyph glyph-name="Ucircumflex" unicode="&#xdb;" horiz-adv-x="712" 
d="M618 252q0 -89 -33.5 -147t-92.5 -86.5t-137 -28.5q-124 0 -192 67t-68 197v460h26v-458q0 -120 61.5 -180.5t173.5 -60.5q107 0 171.5 57.5t64.5 171.5v470h26v-462zM368 949q12 -20 32 -47.5t42 -55t40 -48.5v-6h-21q-28 28 -55.5 62.5t-48.5 62.5q-21 -28 -49.5 -62.5
t-56.5 -62.5h-21v6q19 21 41 48.5t42.5 55t32.5 47.5h22z" />
    <glyph glyph-name="Udieresis" unicode="&#xdc;" horiz-adv-x="712" 
d="M618 252q0 -89 -33.5 -147t-92.5 -86.5t-137 -28.5q-124 0 -192 67t-68 197v460h26v-458q0 -120 61.5 -180.5t173.5 -60.5q107 0 171.5 57.5t64.5 171.5v470h26v-462zM240 864q0 12 5 21.5t18 9.5q17 0 21 -9.5t4 -21.5q0 -13 -4 -22t-21 -9q-13 0 -18 9t-5 22zM425 864
q0 12 5 21.5t18 9.5q17 0 21 -9.5t4 -21.5q0 -13 -4 -22t-21 -9q-13 0 -18 9t-5 22z" />
    <glyph glyph-name="Yacute" unicode="&#xdd;" horiz-adv-x="505" 
d="M253 301l222 413h30l-238 -439v-275h-26v271l-241 443h30zM378 945q-26 -34 -67 -77t-81 -76h-21v6q23 20 49.5 48t51 56.5t38.5 49.5h30v-7z" />
    <glyph glyph-name="Thorn" unicode="&#xde;" horiz-adv-x="573" 
d="M518 382q0 -110 -70 -159.5t-192 -49.5h-127v-173h-26v714h26v-132h152q118 0 177.5 -47.5t59.5 -152.5zM252 198q72 0 126 17t83.5 57.5t29.5 109.5q0 93 -52 134t-165 41h-145v-359h123z" />
    <glyph glyph-name="germandbls" unicode="&#xdf;" horiz-adv-x="554" 
d="M439 636q0 -37 -14 -60.5t-34 -39t-40.5 -30.5t-34.5 -34.5t-14 -51.5q0 -40 25.5 -64.5t68.5 -53.5q29 -19 53 -40t39 -51t15 -77q0 -38 -18 -71t-55 -53t-93 -20q-47 0 -77.5 8.5t-56.5 18.5v28q33 -15 65 -22.5t69 -7.5q68 0 103.5 32.5t35.5 86.5q0 39 -12.5 65
t-33.5 45.5t-48 37.5q-29 21 -53.5 39.5t-39 41.5t-14.5 57q0 36 14 58t34.5 37.5t40.5 30t34 35.5t14 55q0 48 -33 76t-97 28q-85 0 -126 -46t-41 -131v-563h-26v563q0 97 49.5 149.5t143.5 52.5q77 0 117 -35.5t40 -93.5z" />
    <glyph glyph-name="agrave" unicode="&#xe0;" horiz-adv-x="511" 
d="M264 537q82 0 123 -44.5t41 -142.5v-350h-22l-4 103h-2q-21 -46 -66 -79.5t-126 -33.5q-79 0 -119.5 38t-40.5 101q0 79 66.5 118.5t184.5 46.5l103 6v43q0 90 -34 129.5t-104 39.5q-40 0 -77.5 -9t-80.5 -31l-9 26q40 18 81.5 28.5t85.5 10.5zM301 270
q-102 -5 -163.5 -38t-61.5 -103q0 -53 34 -83.5t98 -30.5q100 0 146.5 57t47.5 148v55zM202 766q15 -21 39 -49.5t51 -56.5t49 -48v-6h-21q-40 33 -81 76t-67 77v7h30z" />
    <glyph glyph-name="aacute" unicode="&#xe1;" horiz-adv-x="511" 
d="M264 537q82 0 123 -44.5t41 -142.5v-350h-22l-4 103h-2q-21 -46 -66 -79.5t-126 -33.5q-79 0 -119.5 38t-40.5 101q0 79 66.5 118.5t184.5 46.5l103 6v43q0 90 -34 129.5t-104 39.5q-40 0 -77.5 -9t-80.5 -31l-9 26q40 18 81.5 28.5t85.5 10.5zM301 270
q-102 -5 -163.5 -38t-61.5 -103q0 -53 34 -83.5t98 -30.5q100 0 146.5 57t47.5 148v55zM381 759q-26 -34 -67 -77t-81 -76h-21v6q23 20 49.5 48t51 56.5t38.5 49.5h30v-7z" />
    <glyph glyph-name="acircumflex" unicode="&#xe2;" horiz-adv-x="511" 
d="M264 537q82 0 123 -44.5t41 -142.5v-350h-22l-4 103h-2q-21 -46 -66 -79.5t-126 -33.5q-79 0 -119.5 38t-40.5 101q0 79 66.5 118.5t184.5 46.5l103 6v43q0 90 -34 129.5t-104 39.5q-40 0 -77.5 -9t-80.5 -31l-9 26q40 18 81.5 28.5t85.5 10.5zM301 270
q-102 -5 -163.5 -38t-61.5 -103q0 -53 34 -83.5t98 -30.5q100 0 146.5 57t47.5 148v55zM268 763q12 -20 32 -47.5t42 -55t40 -48.5v-6h-21q-28 28 -55.5 62.5t-48.5 62.5q-21 -28 -49.5 -62.5t-56.5 -62.5h-21v6q19 21 41 48.5t42.5 55t32.5 47.5h22z" />
    <glyph glyph-name="atilde" unicode="&#xe3;" horiz-adv-x="511" 
d="M264 537q82 0 123 -44.5t41 -142.5v-350h-22l-4 103h-2q-21 -46 -66 -79.5t-126 -33.5q-79 0 -119.5 38t-40.5 101q0 79 66.5 118.5t184.5 46.5l103 6v43q0 90 -34 129.5t-104 39.5q-40 0 -77.5 -9t-80.5 -31l-9 26q40 18 81.5 28.5t85.5 10.5zM301 270
q-102 -5 -163.5 -38t-61.5 -103q0 -53 34 -83.5t98 -30.5q100 0 146.5 57t47.5 148v55zM94 618q4 50 27.5 74t61.5 24q25 0 43.5 -11.5t34 -26t32 -26t36.5 -11.5q22 0 41.5 14.5t23.5 60.5h25q-4 -49 -28.5 -74t-62.5 -25q-25 0 -43.5 11.5t-34 26t-31.5 26t-38 11.5
q-20 0 -38.5 -14.5t-23.5 -59.5h-25z" />
    <glyph glyph-name="adieresis" unicode="&#xe4;" horiz-adv-x="511" 
d="M264 537q82 0 123 -44.5t41 -142.5v-350h-22l-4 103h-2q-21 -46 -66 -79.5t-126 -33.5q-79 0 -119.5 38t-40.5 101q0 79 66.5 118.5t184.5 46.5l103 6v43q0 90 -34 129.5t-104 39.5q-40 0 -77.5 -9t-80.5 -31l-9 26q40 18 81.5 28.5t85.5 10.5zM301 270
q-102 -5 -163.5 -38t-61.5 -103q0 -53 34 -83.5t98 -30.5q100 0 146.5 57t47.5 148v55zM140 678q0 12 5 21.5t18 9.5q17 0 21 -9.5t4 -21.5q0 -13 -4 -22t-21 -9q-13 0 -18 9t-5 22zM325 678q0 12 5 21.5t18 9.5q17 0 21 -9.5t4 -21.5q0 -13 -4 -22t-21 -9q-13 0 -18 9
t-5 22z" />
    <glyph glyph-name="aring" unicode="&#xe5;" horiz-adv-x="511" 
d="M264 537q82 0 123 -44.5t41 -142.5v-350h-22l-4 103h-2q-21 -46 -66 -79.5t-126 -33.5q-79 0 -119.5 38t-40.5 101q0 79 66.5 118.5t184.5 46.5l103 6v43q0 90 -34 129.5t-104 39.5q-40 0 -77.5 -9t-80.5 -31l-9 26q40 18 81.5 28.5t85.5 10.5zM301 270
q-102 -5 -163.5 -38t-61.5 -103q0 -53 34 -83.5t98 -30.5q100 0 146.5 57t47.5 148v55zM256 611q-40 0 -70.5 27.5t-30.5 72.5q0 43 30 71.5t71 28.5t70.5 -29.5t29.5 -70.5q0 -44 -29.5 -72t-70.5 -28zM256 635q34 0 55 22.5t21 53.5q0 32 -22.5 54t-53.5 22q-33 0 -55 -22
t-22 -54q0 -31 21.5 -53.5t55.5 -22.5z" />
    <glyph glyph-name="ae" unicode="&#xe6;" horiz-adv-x="850" 
d="M604 538q64 0 106 -33t62 -88.5t17 -125.5v-25h-371q-1 -121 51.5 -186t143.5 -65q43 0 76.5 7t79.5 28v-27q-73 -33 -156 -33q-84 0 -135 44t-70 111q-18 -70 -66 -112.5t-132 -42.5q-81 0 -121.5 38t-40.5 101q0 79 66.5 118.5t181.5 46.5l96 6v43q0 90 -33 129.5
t-98 39.5q-37 0 -74.5 -9t-80.5 -31l-9 26q40 18 81 28.5t83 10.5q70 0 108 -36.5t45 -116.5q22 68 69.5 111t120.5 43zM604 513q-73 0 -124.5 -56.5t-60.5 -165.5h343q1 99 -39 160.5t-119 61.5zM298 270q-100 -5 -161 -38t-61 -103q0 -53 34.5 -83.5t99.5 -30.5
q93 0 137 57t45 148v55z" />
    <glyph glyph-name="ccedilla" unicode="&#xe7;" horiz-adv-x="472" 
d="M302 -10q-84 0 -138 35.5t-79.5 97t-25.5 138.5q0 81 31.5 143.5t89.5 98t139 35.5q36 0 65.5 -6t57.5 -18l-5 -25q-30 14 -59.5 19t-58.5 5q-72 0 -124 -32t-80.5 -89t-28.5 -131q0 -68 22.5 -124t70 -89t123.5 -33q36 0 71.5 7t64.5 19v-25q-25 -10 -60 -18t-76 -8z
M358 -145q0 -43 -32 -69t-81 -26q-34 0 -57 6v24q13 -4 25.5 -5t31.5 -1q38 0 63 18t25 52q0 32 -25 46.5t-78 14.5l44 85h25l-33 -65q44 -2 68 -23t24 -57z" />
    <glyph glyph-name="egrave" unicode="&#xe8;" horiz-adv-x="540" 
d="M287 538q68 0 110 -33t62 -88.5t20 -125.5v-25h-393q-1 -121 53 -186t157 -65q48 0 82.5 7t80.5 28v-27q-38 -17 -76.5 -25t-86.5 -8q-83 0 -135.5 35t-77 96t-24.5 138q0 75 25 138.5t75.5 102t127.5 38.5zM287 513q-84 0 -137.5 -56.5t-62.5 -165.5h365q1 99 -40 160.5
t-125 61.5zM216 766q15 -21 39 -49.5t51 -56.5t49 -48v-6h-21q-40 33 -81 76t-67 77v7h30z" />
    <glyph glyph-name="eacute" unicode="&#xe9;" horiz-adv-x="540" 
d="M287 538q68 0 110 -33t62 -88.5t20 -125.5v-25h-393q-1 -121 53 -186t157 -65q48 0 82.5 7t80.5 28v-27q-38 -17 -76.5 -25t-86.5 -8q-83 0 -135.5 35t-77 96t-24.5 138q0 75 25 138.5t75.5 102t127.5 38.5zM287 513q-84 0 -137.5 -56.5t-62.5 -165.5h365q1 99 -40 160.5
t-125 61.5zM395 759q-26 -34 -67 -77t-81 -76h-21v6q23 20 49.5 48t51 56.5t38.5 49.5h30v-7z" />
    <glyph glyph-name="ecircumflex" unicode="&#xea;" horiz-adv-x="540" 
d="M287 538q68 0 110 -33t62 -88.5t20 -125.5v-25h-393q-1 -121 53 -186t157 -65q48 0 82.5 7t80.5 28v-27q-38 -17 -76.5 -25t-86.5 -8q-83 0 -135.5 35t-77 96t-24.5 138q0 75 25 138.5t75.5 102t127.5 38.5zM287 513q-84 0 -137.5 -56.5t-62.5 -165.5h365q1 99 -40 160.5
t-125 61.5zM282 763q12 -20 32 -47.5t42 -55t40 -48.5v-6h-21q-28 28 -55.5 62.5t-48.5 62.5q-21 -28 -49.5 -62.5t-56.5 -62.5h-21v6q19 21 41 48.5t42.5 55t32.5 47.5h22z" />
    <glyph glyph-name="edieresis" unicode="&#xeb;" horiz-adv-x="540" 
d="M287 538q68 0 110 -33t62 -88.5t20 -125.5v-25h-393q-1 -121 53 -186t157 -65q48 0 82.5 7t80.5 28v-27q-38 -17 -76.5 -25t-86.5 -8q-83 0 -135.5 35t-77 96t-24.5 138q0 75 25 138.5t75.5 102t127.5 38.5zM287 513q-84 0 -137.5 -56.5t-62.5 -165.5h365q1 99 -40 160.5
t-125 61.5zM154 678q0 12 5 21.5t18 9.5q17 0 21 -9.5t4 -21.5q0 -13 -4 -22t-21 -9q-13 0 -18 9t-5 22zM339 678q0 12 5 21.5t18 9.5q17 0 21 -9.5t4 -21.5q0 -13 -4 -22t-21 -9q-13 0 -18 9t-5 22z" />
    <glyph glyph-name="igrave" unicode="&#xec;" horiz-adv-x="207" 
d="M116 0h-26v528h26v-528zM50 766q15 -21 39 -49.5t51 -56.5t49 -48v-6h-21q-40 33 -81 76t-67 77v7h30z" />
    <glyph glyph-name="iacute" unicode="&#xed;" horiz-adv-x="207" 
d="M116 0h-26v528h26v-528zM229 759q-26 -34 -67 -77t-81 -76h-21v6q23 20 49.5 48t51 56.5t38.5 49.5h30v-7z" />
    <glyph glyph-name="icircumflex" unicode="&#xee;" horiz-adv-x="207" 
d="M116 0h-26v528h26v-528zM116 763q12 -20 32 -47.5t42 -55t40 -48.5v-6h-21q-28 28 -55.5 62.5t-48.5 62.5q-21 -28 -49.5 -62.5t-56.5 -62.5h-21v6q19 21 41 48.5t42.5 55t32.5 47.5h22z" />
    <glyph glyph-name="idieresis" unicode="&#xef;" horiz-adv-x="207" 
d="M116 0h-26v528h26v-528zM-12 678q0 12 5 21.5t18 9.5q17 0 21 -9.5t4 -21.5q0 -13 -4 -22t-21 -9q-13 0 -18 9t-5 22zM173 678q0 12 5 21.5t18 9.5q17 0 21 -9.5t4 -21.5q0 -13 -4 -22t-21 -9q-13 0 -18 9t-5 22z" />
    <glyph glyph-name="eth" unicode="&#xf0;" horiz-adv-x="554" 
d="M204 757q37 -17 66 -35t51 -37l109 67l13 -21l-104 -62q80 -79 117.5 -180t37.5 -217q0 -77 -24 -141.5t-72.5 -102.5t-123.5 -38q-104 0 -160.5 64t-56.5 169q0 75 29 129t79.5 83.5t113.5 29.5q71 0 111 -21t65 -53h2q-14 72 -49.5 143t-90.5 122l-129 -78l-13 20
l123 74q-21 17 -49 34t-58 30zM279 440q-55 0 -99 -25.5t-70 -74t-26 -117.5q0 -100 52.5 -154t137.5 -54q91 0 142 69t51 201q0 22 -8 48.5t-28.5 51t-57 40t-94.5 15.5z" />
    <glyph glyph-name="ntilde" unicode="&#xf1;" horiz-adv-x="573" 
d="M309 538q86 0 133 -47t47 -145v-346h-26v345q0 88 -40.5 128t-113.5 40q-86 0 -139.5 -51.5t-53.5 -159.5v-302h-26v528h21l4 -111h2q12 31 35.5 58.5t62 45t94.5 17.5zM125 618q4 50 27.5 74t61.5 24q25 0 43.5 -11.5t34 -26t32 -26t36.5 -11.5q22 0 41.5 14.5
t23.5 60.5h25q-4 -49 -28.5 -74t-62.5 -25q-25 0 -43.5 11.5t-34 26t-31.5 26t-38 11.5q-20 0 -38.5 -14.5t-23.5 -59.5h-25z" />
    <glyph glyph-name="ograve" unicode="&#xf2;" horiz-adv-x="575" 
d="M515 264q0 -77 -24.5 -139.5t-75 -98.5t-129.5 -36q-76 0 -126.5 36t-75.5 98t-25 140q0 126 61.5 200t171.5 74q80 0 129 -36.5t71.5 -98.5t22.5 -139zM86 264q0 -73 22 -129.5t66.5 -88t111.5 -31.5q70 0 114.5 32t66 88.5t21.5 128.5q0 69 -19.5 125.5t-62.5 90
t-114 33.5q-99 0 -152.5 -66t-53.5 -183zM234 766q15 -21 39 -49.5t51 -56.5t49 -48v-6h-21q-40 33 -81 76t-67 77v7h30z" />
    <glyph glyph-name="oacute" unicode="&#xf3;" horiz-adv-x="575" 
d="M515 264q0 -77 -24.5 -139.5t-75 -98.5t-129.5 -36q-76 0 -126.5 36t-75.5 98t-25 140q0 126 61.5 200t171.5 74q80 0 129 -36.5t71.5 -98.5t22.5 -139zM86 264q0 -73 22 -129.5t66.5 -88t111.5 -31.5q70 0 114.5 32t66 88.5t21.5 128.5q0 69 -19.5 125.5t-62.5 90
t-114 33.5q-99 0 -152.5 -66t-53.5 -183zM413 759q-26 -34 -67 -77t-81 -76h-21v6q23 20 49.5 48t51 56.5t38.5 49.5h30v-7z" />
    <glyph glyph-name="ocircumflex" unicode="&#xf4;" horiz-adv-x="575" 
d="M515 264q0 -77 -24.5 -139.5t-75 -98.5t-129.5 -36q-76 0 -126.5 36t-75.5 98t-25 140q0 126 61.5 200t171.5 74q80 0 129 -36.5t71.5 -98.5t22.5 -139zM86 264q0 -73 22 -129.5t66.5 -88t111.5 -31.5q70 0 114.5 32t66 88.5t21.5 128.5q0 69 -19.5 125.5t-62.5 90
t-114 33.5q-99 0 -152.5 -66t-53.5 -183zM300 763q12 -20 32 -47.5t42 -55t40 -48.5v-6h-21q-28 28 -55.5 62.5t-48.5 62.5q-21 -28 -49.5 -62.5t-56.5 -62.5h-21v6q19 21 41 48.5t42.5 55t32.5 47.5h22z" />
    <glyph glyph-name="otilde" unicode="&#xf5;" horiz-adv-x="575" 
d="M515 264q0 -77 -24.5 -139.5t-75 -98.5t-129.5 -36q-76 0 -126.5 36t-75.5 98t-25 140q0 126 61.5 200t171.5 74q80 0 129 -36.5t71.5 -98.5t22.5 -139zM86 264q0 -73 22 -129.5t66.5 -88t111.5 -31.5q70 0 114.5 32t66 88.5t21.5 128.5q0 69 -19.5 125.5t-62.5 90
t-114 33.5q-99 0 -152.5 -66t-53.5 -183zM126 618q4 50 27.5 74t61.5 24q25 0 43.5 -11.5t34 -26t32 -26t36.5 -11.5q22 0 41.5 14.5t23.5 60.5h25q-4 -49 -28.5 -74t-62.5 -25q-25 0 -43.5 11.5t-34 26t-31.5 26t-38 11.5q-20 0 -38.5 -14.5t-23.5 -59.5h-25z" />
    <glyph glyph-name="odieresis" unicode="&#xf6;" horiz-adv-x="575" 
d="M515 264q0 -77 -24.5 -139.5t-75 -98.5t-129.5 -36q-76 0 -126.5 36t-75.5 98t-25 140q0 126 61.5 200t171.5 74q80 0 129 -36.5t71.5 -98.5t22.5 -139zM86 264q0 -73 22 -129.5t66.5 -88t111.5 -31.5q70 0 114.5 32t66 88.5t21.5 128.5q0 69 -19.5 125.5t-62.5 90
t-114 33.5q-99 0 -152.5 -66t-53.5 -183zM172 678q0 12 5 21.5t18 9.5q17 0 21 -9.5t4 -21.5q0 -13 -4 -22t-21 -9q-13 0 -18 9t-5 22zM357 678q0 12 5 21.5t18 9.5q17 0 21 -9.5t4 -21.5q0 -13 -4 -22t-21 -9q-13 0 -18 9t-5 22z" />
    <glyph glyph-name="divide" unicode="&#xf7;" horiz-adv-x="570" 
d="M284 500q-15 0 -20 9t-5 22q0 12 5 21.5t20 9.5q18 0 22.5 -9.5t4.5 -21.5q0 -13 -4.5 -22t-22.5 -9zM55 341v24h460v-24h-460zM284 144q-15 0 -20 9t-5 22q0 12 5 21.5t20 9.5q18 0 22.5 -9.5t4.5 -21.5q0 -13 -4.5 -22t-22.5 -9z" />
    <glyph glyph-name="oslash" unicode="&#xf8;" horiz-adv-x="575" 
d="M515 264q0 -77 -24.5 -139.5t-75 -98.5t-129.5 -36q-52 0 -91 17t-67 47l-66 -81l-19 16l69 85q-53 74 -53 190q0 126 61.5 200t171.5 74q49 0 86 -14.5t63 -40.5l58 72l19 -16l-60 -74q29 -37 43 -89t14 -112zM86 264q0 -104 42 -169l296 368q-23 23 -55.5 36.5
t-76.5 13.5q-99 0 -152.5 -66t-53.5 -183zM488 264q0 53 -11 99t-36 80l-297 -369q25 -28 60.5 -43.5t81.5 -15.5q70 0 114.5 32t66 88.5t21.5 128.5z" />
    <glyph glyph-name="ugrave" unicode="&#xf9;" horiz-adv-x="573" 
d="M481 528v-528h-21l-4 111h-2q-11 -30 -35 -58t-62.5 -45.5t-94.5 -17.5q-88 0 -134 49t-46 143v346h26v-342q0 -88 40 -129.5t114 -41.5q86 0 139.5 51.5t53.5 159.5v302h26zM233 766q15 -21 39 -49.5t51 -56.5t49 -48v-6h-21q-40 33 -81 76t-67 77v7h30z" />
    <glyph glyph-name="uacute" unicode="&#xfa;" horiz-adv-x="573" 
d="M481 528v-528h-21l-4 111h-2q-11 -30 -35 -58t-62.5 -45.5t-94.5 -17.5q-88 0 -134 49t-46 143v346h26v-342q0 -88 40 -129.5t114 -41.5q86 0 139.5 51.5t53.5 159.5v302h26zM412 759q-26 -34 -67 -77t-81 -76h-21v6q23 20 49.5 48t51 56.5t38.5 49.5h30v-7z" />
    <glyph glyph-name="ucircumflex" unicode="&#xfb;" horiz-adv-x="573" 
d="M481 528v-528h-21l-4 111h-2q-11 -30 -35 -58t-62.5 -45.5t-94.5 -17.5q-88 0 -134 49t-46 143v346h26v-342q0 -88 40 -129.5t114 -41.5q86 0 139.5 51.5t53.5 159.5v302h26zM299 763q12 -20 32 -47.5t42 -55t40 -48.5v-6h-21q-28 28 -55.5 62.5t-48.5 62.5
q-21 -28 -49.5 -62.5t-56.5 -62.5h-21v6q19 21 41 48.5t42.5 55t32.5 47.5h22z" />
    <glyph glyph-name="udieresis" unicode="&#xfc;" horiz-adv-x="573" 
d="M481 528v-528h-21l-4 111h-2q-11 -30 -35 -58t-62.5 -45.5t-94.5 -17.5q-88 0 -134 49t-46 143v346h26v-342q0 -88 40 -129.5t114 -41.5q86 0 139.5 51.5t53.5 159.5v302h26zM171 678q0 12 5 21.5t18 9.5q17 0 21 -9.5t4 -21.5q0 -13 -4 -22t-21 -9q-13 0 -18 9t-5 22z
M356 678q0 12 5 21.5t18 9.5q17 0 21 -9.5t4 -21.5q0 -13 -4 -22t-21 -9q-13 0 -18 9t-5 22z" />
    <glyph glyph-name="yacute" unicode="&#xfd;" horiz-adv-x="428" 
d="M0 528h27l137 -356q18 -48 30.5 -81t19.5 -54h2q8 22 19.5 54t28.5 77l139 360h27l-249 -643q-25 -65 -54.5 -96.5t-78.5 -31.5q-27 0 -54 10v26q14 -5 26 -8t28 -3q38 0 62.5 26t49.5 90l41 108zM339 759q-26 -34 -67 -77t-81 -76h-21v6q23 20 49.5 48t51 56.5
t38.5 49.5h30v-7z" />
    <glyph glyph-name="thorn" unicode="&#xfe;" horiz-adv-x="583" 
d="M526 269q0 -133 -58.5 -206t-164.5 -73q-79 0 -124 37t-62 89h-2q2 -34 2 -66.5v-64.5v-217h-26v992h26v-235q0 -24 -0.5 -59t-1.5 -60h2q11 35 36 65t65 48.5t95 18.5q105 0 159 -68.5t54 -200.5zM499 269q0 124 -47 184t-139 60q-96 0 -145.5 -65.5t-49.5 -182.5v-3
q0 -127 50 -187t135 -60q92 0 144 64t52 190z" />
    <glyph glyph-name="ydieresis" unicode="&#xff;" horiz-adv-x="428" 
d="M0 528h27l137 -356q18 -48 30.5 -81t19.5 -54h2q8 22 19.5 54t28.5 77l139 360h27l-249 -643q-25 -65 -54.5 -96.5t-78.5 -31.5q-27 0 -54 10v26q14 -5 26 -8t28 -3q38 0 62.5 26t49.5 90l41 108zM98 678q0 12 5 21.5t18 9.5q17 0 21 -9.5t4 -21.5q0 -13 -4 -22t-21 -9
q-13 0 -18 9t-5 22zM283 678q0 12 5 21.5t18 9.5q17 0 21 -9.5t4 -21.5q0 -13 -4 -22t-21 -9q-13 0 -18 9t-5 22z" />
    <glyph glyph-name="Amacron" unicode="&#x100;" horiz-adv-x="577" 
d="M549 0l-104 271h-310l-107 -271h-28l282 716h25l270 -716h-28zM325 594q-6 17 -14 38.5t-18 49.5q-7 -22 -16 -45.5t-17 -43.5l-116 -297h291zM417 824v-24h-255v24h255z" />
    <glyph glyph-name="amacron" unicode="&#x101;" horiz-adv-x="511" 
d="M264 537q82 0 123 -44.5t41 -142.5v-350h-22l-4 103h-2q-21 -46 -66 -79.5t-126 -33.5q-79 0 -119.5 38t-40.5 101q0 79 66.5 118.5t184.5 46.5l103 6v43q0 90 -34 129.5t-104 39.5q-40 0 -77.5 -9t-80.5 -31l-9 26q40 18 81.5 28.5t85.5 10.5zM301 270
q-102 -5 -163.5 -38t-61.5 -103q0 -53 34 -83.5t98 -30.5q100 0 146.5 57t47.5 148v55zM384 638v-24h-255v24h255z" />
    <glyph glyph-name="Abreve" unicode="&#x102;" horiz-adv-x="577" 
d="M549 0l-104 271h-310l-107 -271h-28l282 716h25l270 -716h-28zM325 594q-6 17 -14 38.5t-18 49.5q-7 -22 -16 -45.5t-17 -43.5l-116 -297h291zM412 904q-14 -112 -123 -112q-54 0 -85.5 28.5t-36.5 83.5h25q4 -40 27.5 -64t69.5 -24q49 0 71.5 24t26.5 64h25z" />
    <glyph glyph-name="abreve" unicode="&#x103;" horiz-adv-x="511" 
d="M264 537q82 0 123 -44.5t41 -142.5v-350h-22l-4 103h-2q-21 -46 -66 -79.5t-126 -33.5q-79 0 -119.5 38t-40.5 101q0 79 66.5 118.5t184.5 46.5l103 6v43q0 90 -34 129.5t-104 39.5q-40 0 -77.5 -9t-80.5 -31l-9 26q40 18 81.5 28.5t85.5 10.5zM301 270
q-102 -5 -163.5 -38t-61.5 -103q0 -53 34 -83.5t98 -30.5q100 0 146.5 57t47.5 148v55zM379 718q-14 -112 -123 -112q-54 0 -85.5 28.5t-36.5 83.5h25q4 -40 27.5 -64t69.5 -24q49 0 71.5 24t26.5 64h25z" />
    <glyph glyph-name="Aogonek" unicode="&#x104;" horiz-adv-x="577" 
d="M549 0l-104 271h-310l-107 -271h-28l282 716h25l270 -716h-28zM325 594q-6 17 -14 38.5t-18 49.5q-7 -22 -16 -45.5t-17 -43.5l-116 -297h291zM470 -131q0 -61 58 -61q29 0 48 7v-24q-8 -3 -21 -5.5t-29 -2.5q-34 0 -58 20.5t-24 61.5q0 36 24 71.5t76 74.5l18 -11
q-34 -27 -63 -60t-29 -71z" />
    <glyph glyph-name="aogonek" unicode="&#x105;" horiz-adv-x="511" 
d="M264 537q82 0 123 -44.5t41 -142.5v-350h-22l-4 103h-2q-21 -46 -66 -79.5t-126 -33.5q-79 0 -119.5 38t-40.5 101q0 79 66.5 118.5t184.5 46.5l103 6v43q0 90 -34 129.5t-104 39.5q-40 0 -77.5 -9t-80.5 -31l-9 26q40 18 81.5 28.5t85.5 10.5zM301 270
q-102 -5 -163.5 -38t-61.5 -103q0 -53 34 -83.5t98 -30.5q100 0 146.5 57t47.5 148v55zM343 -131q0 -61 58 -61q29 0 48 7v-24q-8 -3 -21 -5.5t-29 -2.5q-34 0 -58 20.5t-24 61.5q0 36 24 71.5t76 74.5l18 -11q-34 -27 -63 -60t-29 -71z" />
    <glyph glyph-name="Cacute" unicode="&#x106;" horiz-adv-x="614" 
d="M405 699q-100 0 -170.5 -44t-107.5 -120.5t-37 -174.5q0 -103 33 -181t99 -121t164 -43q58 0 103 8t81 21v-23q-33 -13 -79 -22t-105 -9q-106 0 -178 46.5t-108.5 129.5t-36.5 194q0 104 41 186.5t117.5 130t183.5 47.5q97 0 178 -37l-10 -25q-43 23 -85 30t-83 7z
M512 945q-26 -34 -67 -77t-81 -76h-21v6q23 20 49.5 48t51 56.5t38.5 49.5h30v-7z" />
    <glyph glyph-name="cacute" unicode="&#x107;" horiz-adv-x="472" 
d="M302 -10q-84 0 -138 35.5t-79.5 97t-25.5 138.5q0 81 31.5 143.5t89.5 98t139 35.5q36 0 65.5 -6t57.5 -18l-5 -25q-30 14 -59.5 19t-58.5 5q-72 0 -124 -32t-80.5 -89t-28.5 -131q0 -68 22.5 -124t70 -89t123.5 -33q36 0 71.5 7t64.5 19v-25q-25 -10 -60 -18t-76 -8z
M431 759q-26 -34 -67 -77t-81 -76h-21v6q23 20 49.5 48t51 56.5t38.5 49.5h30v-7z" />
    <glyph glyph-name="Ccircumflex" unicode="&#x108;" horiz-adv-x="614" 
d="M405 699q-100 0 -170.5 -44t-107.5 -120.5t-37 -174.5q0 -103 33 -181t99 -121t164 -43q58 0 103 8t81 21v-23q-33 -13 -79 -22t-105 -9q-106 0 -178 46.5t-108.5 129.5t-36.5 194q0 104 41 186.5t117.5 130t183.5 47.5q97 0 178 -37l-10 -25q-43 23 -85 30t-83 7z
M399 949q12 -20 32 -47.5t42 -55t40 -48.5v-6h-21q-28 28 -55.5 62.5t-48.5 62.5q-21 -28 -49.5 -62.5t-56.5 -62.5h-21v6q19 21 41 48.5t42.5 55t32.5 47.5h22z" />
    <glyph glyph-name="ccircumflex" unicode="&#x109;" horiz-adv-x="472" 
d="M302 -10q-84 0 -138 35.5t-79.5 97t-25.5 138.5q0 81 31.5 143.5t89.5 98t139 35.5q36 0 65.5 -6t57.5 -18l-5 -25q-30 14 -59.5 19t-58.5 5q-72 0 -124 -32t-80.5 -89t-28.5 -131q0 -68 22.5 -124t70 -89t123.5 -33q36 0 71.5 7t64.5 19v-25q-25 -10 -60 -18t-76 -8z
M318 763q12 -20 32 -47.5t42 -55t40 -48.5v-6h-21q-28 28 -55.5 62.5t-48.5 62.5q-21 -28 -49.5 -62.5t-56.5 -62.5h-21v6q19 21 41 48.5t42.5 55t32.5 47.5h22z" />
    <glyph glyph-name="Cdotaccent" unicode="&#x10a;" horiz-adv-x="614" 
d="M405 699q-100 0 -170.5 -44t-107.5 -120.5t-37 -174.5q0 -103 33 -181t99 -121t164 -43q58 0 103 8t81 21v-23q-33 -13 -79 -22t-105 -9q-106 0 -178 46.5t-108.5 129.5t-36.5 194q0 104 41 186.5t117.5 130t183.5 47.5q97 0 178 -37l-10 -25q-43 23 -85 30t-83 7z
M386 907q18 0 22.5 -9.5t4.5 -21.5q0 -13 -4.5 -22t-22.5 -9q-15 0 -20 9t-5 22q0 12 5 21.5t20 9.5z" />
    <glyph glyph-name="cdotaccent" unicode="&#x10b;" horiz-adv-x="472" 
d="M302 -10q-84 0 -138 35.5t-79.5 97t-25.5 138.5q0 81 31.5 143.5t89.5 98t139 35.5q36 0 65.5 -6t57.5 -18l-5 -25q-30 14 -59.5 19t-58.5 5q-72 0 -124 -32t-80.5 -89t-28.5 -131q0 -68 22.5 -124t70 -89t123.5 -33q36 0 71.5 7t64.5 19v-25q-25 -10 -60 -18t-76 -8z
M305 721q18 0 22.5 -9.5t4.5 -21.5q0 -13 -4.5 -22t-22.5 -9q-15 0 -20 9t-5 22q0 12 5 21.5t20 9.5z" />
    <glyph glyph-name="Ccaron" unicode="&#x10c;" horiz-adv-x="614" 
d="M405 699q-100 0 -170.5 -44t-107.5 -120.5t-37 -174.5q0 -103 33 -181t99 -121t164 -43q58 0 103 8t81 21v-23q-33 -13 -79 -22t-105 -9q-106 0 -178 46.5t-108.5 129.5t-36.5 194q0 104 41 186.5t117.5 130t183.5 47.5q97 0 178 -37l-10 -25q-43 23 -85 30t-83 7z
M375 792q-12 21 -32 48.5t-41.5 55t-40.5 47.5v6h21q28 -28 55.5 -62t48.5 -63q21 29 49.5 63t56.5 62h21v-6q-18 -20 -40.5 -47.5t-43 -55t-32.5 -48.5h-22z" />
    <glyph glyph-name="ccaron" unicode="&#x10d;" horiz-adv-x="472" 
d="M302 -10q-84 0 -138 35.5t-79.5 97t-25.5 138.5q0 81 31.5 143.5t89.5 98t139 35.5q36 0 65.5 -6t57.5 -18l-5 -25q-30 14 -59.5 19t-58.5 5q-72 0 -124 -32t-80.5 -89t-28.5 -131q0 -68 22.5 -124t70 -89t123.5 -33q36 0 71.5 7t64.5 19v-25q-25 -10 -60 -18t-76 -8z
M294 606q-12 21 -32 48.5t-41.5 55t-40.5 47.5v6h21q28 -28 55.5 -62t48.5 -63q21 29 49.5 63t56.5 62h21v-6q-18 -20 -40.5 -47.5t-43 -55t-32.5 -48.5h-22z" />
    <glyph glyph-name="Dcaron" unicode="&#x10e;" horiz-adv-x="692" 
d="M628 364q0 -179 -91.5 -271.5t-279.5 -92.5h-154v714h177q177 0 262.5 -90t85.5 -260zM601 363q0 159 -78.5 242.5t-252.5 83.5h-141v-664h131q341 0 341 338zM334 792q-12 21 -32 48.5t-41.5 55t-40.5 47.5v6h21q28 -28 55.5 -62t48.5 -63q21 29 49.5 63t56.5 62h21v-6
q-18 -20 -40.5 -47.5t-43 -55t-32.5 -48.5h-22z" />
    <glyph glyph-name="dcaron" unicode="&#x10f;" horiz-adv-x="583" 
d="M611 754q-9 -39 -23.5 -79t-35.5 -75h-17v6q8 15 18 43.5t18 59t11 51.5h29v-6zM283 -10q-114 0 -169 68t-55 196q0 137 60 210.5t172 73.5q72 0 116.5 -35.5t60.5 -88.5h2q-1 34 -1.5 66t-0.5 63v217h26v-760h-22l-2 113h-2q-18 -50 -62 -86.5t-123 -36.5zM283 15
q100 0 142.5 65.5t42.5 182.5v3q0 120 -44 183.5t-133 63.5q-99 0 -152 -64.5t-53 -194.5q0 -120 48.5 -179.5t148.5 -59.5z" />
    <glyph glyph-name="Dcroat" unicode="&#x110;" horiz-adv-x="692" 
d="M280 714q177 0 262.5 -90t85.5 -260q0 -179 -91.5 -271.5t-279.5 -92.5h-154v343h-86v25h86v346h177zM270 689h-141v-321h206v-25h-206v-318h131q341 0 341 338q0 159 -78.5 242.5t-252.5 83.5z" />
    <glyph glyph-name="dcroat" unicode="&#x111;" horiz-adv-x="582" 
d="M283 -10q-114 0 -169 68t-55 196q0 137 60 210.5t172 73.5q72 0 116.5 -35.5t60.5 -88.5h2q-1 34 -1.5 66t-0.5 63v87h-242v25h242v105h26v-105h74v-25h-74v-630h-22l-2 113h-2q-18 -50 -62 -86.5t-123 -36.5zM283 15q100 0 142 65.5t42 182.5v3q0 120 -43.5 183.5
t-132.5 63.5q-99 0 -152 -64.5t-53 -194.5q0 -120 48.5 -179.5t148.5 -59.5z" />
    <glyph glyph-name="Emacron" unicode="&#x112;" horiz-adv-x="550" 
d="M488 0h-385v714h385v-25h-359v-300h339v-25h-339v-339h359v-25zM433 824v-24h-255v24h255z" />
    <glyph glyph-name="emacron" unicode="&#x113;" horiz-adv-x="540" 
d="M287 538q68 0 110 -33t62 -88.5t20 -125.5v-25h-393q-1 -121 53 -186t157 -65q48 0 82.5 7t80.5 28v-27q-38 -17 -76.5 -25t-86.5 -8q-83 0 -135.5 35t-77 96t-24.5 138q0 75 25 138.5t75.5 102t127.5 38.5zM287 513q-84 0 -137.5 -56.5t-62.5 -165.5h365q1 99 -40 160.5
t-125 61.5zM398 638v-24h-255v24h255z" />
    <glyph glyph-name="Ebreve" unicode="&#x114;" horiz-adv-x="550" 
d="M488 0h-385v714h385v-25h-359v-300h339v-25h-339v-339h359v-25zM428 904q-14 -112 -123 -112q-54 0 -85.5 28.5t-36.5 83.5h25q4 -40 27.5 -64t69.5 -24q49 0 71.5 24t26.5 64h25z" />
    <glyph glyph-name="ebreve" unicode="&#x115;" horiz-adv-x="540" 
d="M287 538q68 0 110 -33t62 -88.5t20 -125.5v-25h-393q-1 -121 53 -186t157 -65q48 0 82.5 7t80.5 28v-27q-38 -17 -76.5 -25t-86.5 -8q-83 0 -135.5 35t-77 96t-24.5 138q0 75 25 138.5t75.5 102t127.5 38.5zM287 513q-84 0 -137.5 -56.5t-62.5 -165.5h365q1 99 -40 160.5
t-125 61.5zM393 718q-14 -112 -123 -112q-54 0 -85.5 28.5t-36.5 83.5h25q4 -40 27.5 -64t69.5 -24q49 0 71.5 24t26.5 64h25z" />
    <glyph glyph-name="Edotaccent" unicode="&#x116;" horiz-adv-x="550" 
d="M488 0h-385v714h385v-25h-359v-300h339v-25h-339v-339h359v-25zM304 907q18 0 22.5 -9.5t4.5 -21.5q0 -13 -4.5 -22t-22.5 -9q-15 0 -20 9t-5 22q0 12 5 21.5t20 9.5z" />
    <glyph glyph-name="edotaccent" unicode="&#x117;" horiz-adv-x="540" 
d="M287 538q68 0 110 -33t62 -88.5t20 -125.5v-25h-393q-1 -121 53 -186t157 -65q48 0 82.5 7t80.5 28v-27q-38 -17 -76.5 -25t-86.5 -8q-83 0 -135.5 35t-77 96t-24.5 138q0 75 25 138.5t75.5 102t127.5 38.5zM287 513q-84 0 -137.5 -56.5t-62.5 -165.5h365q1 99 -40 160.5
t-125 61.5zM269 721q18 0 22.5 -9.5t4.5 -21.5q0 -13 -4.5 -22t-22.5 -9q-15 0 -20 9t-5 22q0 12 5 21.5t20 9.5z" />
    <glyph glyph-name="Eogonek" unicode="&#x118;" horiz-adv-x="550" 
d="M488 0h-385v714h385v-25h-359v-300h339v-25h-339v-339h359v-25zM375 -131q0 -61 58 -61q29 0 48 7v-24q-8 -3 -21 -5.5t-29 -2.5q-34 0 -58 20.5t-24 61.5q0 36 24 71.5t76 74.5l18 -11q-34 -27 -63 -60t-29 -71z" />
    <glyph glyph-name="eogonek" unicode="&#x119;" horiz-adv-x="540" 
d="M350 -131q0 -61 58 -61q29 0 48 7v-24q-8 -3 -21 -5.5t-29 -2.5q-34 0 -58 20.5t-24 61.5q0 32 18 65.5t60 71.5q-47 -12 -106 -12q-83 0 -135.5 35t-77 96t-24.5 138q0 75 25 138.5t75.5 102t127.5 38.5q68 0 110 -33t62 -88.5t20 -125.5v-25h-393q-1 -121 53 -186
t157 -65q48 0 82.5 7t80.5 28v-27q-6 -3 -13 -5q-41 -39 -68.5 -75t-27.5 -74zM287 513q-84 0 -137.5 -56.5t-62.5 -165.5h365q1 99 -40 160.5t-125 61.5z" />
    <glyph glyph-name="Ecaron" unicode="&#x11a;" horiz-adv-x="550" 
d="M488 0h-385v714h385v-25h-359v-300h339v-25h-339v-339h359v-25zM293 792q-12 21 -32 48.5t-41.5 55t-40.5 47.5v6h21q28 -28 55.5 -62t48.5 -63q21 29 49.5 63t56.5 62h21v-6q-18 -20 -40.5 -47.5t-43 -55t-32.5 -48.5h-22z" />
    <glyph glyph-name="ecaron" unicode="&#x11b;" horiz-adv-x="540" 
d="M287 538q68 0 110 -33t62 -88.5t20 -125.5v-25h-393q-1 -121 53 -186t157 -65q48 0 82.5 7t80.5 28v-27q-38 -17 -76.5 -25t-86.5 -8q-83 0 -135.5 35t-77 96t-24.5 138q0 75 25 138.5t75.5 102t127.5 38.5zM287 513q-84 0 -137.5 -56.5t-62.5 -165.5h365q1 99 -40 160.5
t-125 61.5zM258 606q-12 21 -32 48.5t-41.5 55t-40.5 47.5v6h21q28 -28 55.5 -62t48.5 -63q21 29 49.5 63t56.5 62h21v-6q-18 -20 -40.5 -47.5t-43 -55t-32.5 -48.5h-22z" />
    <glyph glyph-name="Gcircumflex" unicode="&#x11c;" horiz-adv-x="720" 
d="M367 350h272v-314q-48 -23 -105.5 -34.5t-116.5 -11.5q-173 0 -263.5 95t-90.5 270q0 106 43.5 189.5t124.5 132.5t193 49q57 0 108.5 -10.5t98.5 -33.5l-12 -25q-51 25 -99.5 34.5t-96.5 9.5q-103 0 -178 -45t-115 -123t-40 -177q0 -121 40.5 -196t114.5 -110t174 -35
q58 0 106.5 9.5t87.5 25.5v275h-246v25zM422 949q12 -20 32 -47.5t42 -55t40 -48.5v-6h-21q-28 28 -55.5 62.5t-48.5 62.5q-21 -28 -49.5 -62.5t-56.5 -62.5h-21v6q19 21 41 48.5t42.5 55t32.5 47.5h22z" />
    <glyph glyph-name="gcircumflex" unicode="&#x11d;" horiz-adv-x="583" 
d="M290 538q73 0 112.5 -28.5t60.5 -72.5h2l5 91h22v-553q0 -63 -21.5 -111.5t-69.5 -76t-128 -27.5q-61 0 -105.5 11t-80.5 26v30q36 -17 83 -29.5t103 -12.5q106 0 149.5 52t43.5 138v42q0 29 0.5 50t1.5 50h-2q-18 -62 -67 -94.5t-123 -32.5q-102 0 -159.5 67.5
t-57.5 198.5t58 206.5t173 75.5zM290 513q-105 0 -154.5 -68t-49.5 -189q0 -118 49.5 -179.5t140.5 -61.5q59 0 96 20.5t57.5 54t28.5 74.5t8 82v48q0 63 -16 112.5t-54 78t-106 28.5zM304 763q12 -20 32 -47.5t42 -55t40 -48.5v-6h-21q-28 28 -55.5 62.5t-48.5 62.5
q-21 -28 -49.5 -62.5t-56.5 -62.5h-21v6q19 21 41 48.5t42.5 55t32.5 47.5h22z" />
    <glyph glyph-name="Gbreve" unicode="&#x11e;" horiz-adv-x="720" 
d="M367 350h272v-314q-48 -23 -105.5 -34.5t-116.5 -11.5q-173 0 -263.5 95t-90.5 270q0 106 43.5 189.5t124.5 132.5t193 49q57 0 108.5 -10.5t98.5 -33.5l-12 -25q-51 25 -99.5 34.5t-96.5 9.5q-103 0 -178 -45t-115 -123t-40 -177q0 -121 40.5 -196t114.5 -110t174 -35
q58 0 106.5 9.5t87.5 25.5v275h-246v25zM533 904q-14 -112 -123 -112q-54 0 -85.5 28.5t-36.5 83.5h25q4 -40 27.5 -64t69.5 -24q49 0 71.5 24t26.5 64h25z" />
    <glyph glyph-name="gbreve" unicode="&#x11f;" horiz-adv-x="583" 
d="M290 538q73 0 112.5 -28.5t60.5 -72.5h2l5 91h22v-553q0 -63 -21.5 -111.5t-69.5 -76t-128 -27.5q-61 0 -105.5 11t-80.5 26v30q36 -17 83 -29.5t103 -12.5q106 0 149.5 52t43.5 138v42q0 29 0.5 50t1.5 50h-2q-18 -62 -67 -94.5t-123 -32.5q-102 0 -159.5 67.5
t-57.5 198.5t58 206.5t173 75.5zM290 513q-105 0 -154.5 -68t-49.5 -189q0 -118 49.5 -179.5t140.5 -61.5q59 0 96 20.5t57.5 54t28.5 74.5t8 82v48q0 63 -16 112.5t-54 78t-106 28.5zM415 718q-14 -112 -123 -112q-54 0 -85.5 28.5t-36.5 83.5h25q4 -40 27.5 -64t69.5 -24
q49 0 71.5 24t26.5 64h25z" />
    <glyph glyph-name="Gdotaccent" unicode="&#x120;" horiz-adv-x="720" 
d="M367 350h272v-314q-48 -23 -105.5 -34.5t-116.5 -11.5q-173 0 -263.5 95t-90.5 270q0 106 43.5 189.5t124.5 132.5t193 49q57 0 108.5 -10.5t98.5 -33.5l-12 -25q-51 25 -99.5 34.5t-96.5 9.5q-103 0 -178 -45t-115 -123t-40 -177q0 -121 40.5 -196t114.5 -110t174 -35
q58 0 106.5 9.5t87.5 25.5v275h-246v25zM409 907q18 0 22.5 -9.5t4.5 -21.5q0 -13 -4.5 -22t-22.5 -9q-15 0 -20 9t-5 22q0 12 5 21.5t20 9.5z" />
    <glyph glyph-name="gdotaccent" unicode="&#x121;" horiz-adv-x="583" 
d="M290 538q73 0 112.5 -28.5t60.5 -72.5h2l5 91h22v-553q0 -63 -21.5 -111.5t-69.5 -76t-128 -27.5q-61 0 -105.5 11t-80.5 26v30q36 -17 83 -29.5t103 -12.5q106 0 149.5 52t43.5 138v42q0 29 0.5 50t1.5 50h-2q-18 -62 -67 -94.5t-123 -32.5q-102 0 -159.5 67.5
t-57.5 198.5t58 206.5t173 75.5zM290 513q-105 0 -154.5 -68t-49.5 -189q0 -118 49.5 -179.5t140.5 -61.5q59 0 96 20.5t57.5 54t28.5 74.5t8 82v48q0 63 -16 112.5t-54 78t-106 28.5zM291 721q18 0 22.5 -9.5t4.5 -21.5q0 -13 -4.5 -22t-22.5 -9q-15 0 -20 9t-5 22
q0 12 5 21.5t20 9.5z" />
    <glyph glyph-name="uni0122" unicode="&#x122;" horiz-adv-x="720" 
d="M367 350h272v-314q-48 -23 -105.5 -34.5t-116.5 -11.5q-173 0 -263.5 95t-90.5 270q0 106 43.5 189.5t124.5 132.5t193 49q57 0 108.5 -10.5t98.5 -33.5l-12 -25q-51 25 -99.5 34.5t-96.5 9.5q-103 0 -178 -45t-115 -123t-40 -177q0 -121 40.5 -196t114.5 -110t174 -35
q58 0 106.5 9.5t87.5 25.5v275h-246v25zM438 -67q-9 -39 -23.5 -79t-35.5 -75h-17v6q8 15 18 43.5t18 59t11 51.5h29v-6z" />
    <glyph glyph-name="uni0123" unicode="&#x123;" horiz-adv-x="583" 
d="M341 757q-8 -15 -18 -43.5t-18 -58.5t-11 -52h-29v6q9 39 23.5 79t35.5 75h17v-6zM290 538q73 0 112.5 -28.5t60.5 -72.5h2l5 91h22v-553q0 -63 -21.5 -111.5t-69.5 -76t-128 -27.5q-61 0 -105.5 11t-80.5 26v30q36 -17 83 -29.5t103 -12.5q106 0 149.5 52t43.5 138v42
q0 29 0.5 50t1.5 50h-2q-18 -62 -67 -94.5t-123 -32.5q-102 0 -159.5 67.5t-57.5 198.5t58 206.5t173 75.5zM290 513q-105 0 -154.5 -68t-49.5 -189q0 -118 49.5 -179.5t140.5 -61.5q59 0 96 20.5t57.5 54t28.5 74.5t8 82v48q0 63 -16 112.5t-54 78t-106 28.5z" />
    <glyph glyph-name="Hcircumflex" unicode="&#x124;" horiz-adv-x="706" 
d="M603 0h-26v363h-448v-363h-26v714h26v-326h448v326h26v-714zM365 949q12 -20 32 -47.5t42 -55t40 -48.5v-6h-21q-28 28 -55.5 62.5t-48.5 62.5q-21 -28 -49.5 -62.5t-56.5 -62.5h-21v6q19 21 41 48.5t42.5 55t32.5 47.5h22z" />
    <glyph glyph-name="hcircumflex" unicode="&#x125;" horiz-adv-x="573" 
d="M116 496q0 -22 -0.5 -39.5t-1.5 -39.5h2q11 32 35 59.5t63 44.5t95 17q86 0 133 -47t47 -145v-346h-26v345q0 88 -40.5 128t-113.5 40q-86 0 -139.5 -51.5t-53.5 -159.5v-302h-26v760h26v-264zM115 995q12 -20 32 -47.5t42 -55t40 -48.5v-6h-21q-28 28 -55.5 62.5
t-48.5 62.5q-21 -28 -49.5 -62.5t-56.5 -62.5h-21v6q19 21 41 48.5t42.5 55t32.5 47.5h22z" />
    <glyph glyph-name="Hbar" unicode="&#x126;" horiz-adv-x="706" 
d="M103 0v549h-103v25h103v140h26v-140h448v140h26v-140h103v-25h-103v-549h-26v363h-448v-363h-26zM129 388h448v161h-448v-161z" />
    <glyph glyph-name="hbar" unicode="&#x127;" horiz-adv-x="573" 
d="M116 760v-105h242v-25h-242v-134q0 -22 -0.5 -39.5t-1.5 -39.5h2q11 32 35 59.5t63 44.5t95 17q86 0 133 -47t47 -145v-346h-26v345q0 88 -40.5 128t-113.5 40q-86 0 -139.5 -51.5t-53.5 -159.5v-302h-26v630h-74v25h74v105h26z" />
    <glyph glyph-name="Itilde" unicode="&#x128;" horiz-adv-x="283" 
d="M223 0h-162v20l68 3v667l-68 4v20h162v-20l-68 -4v-667l68 -3v-20zM-20 804q4 50 27.5 74t61.5 24q25 0 43.5 -11.5t34 -26t32 -26t36.5 -11.5q22 0 41.5 14.5t23.5 60.5h25q-4 -49 -28.5 -74t-62.5 -25q-25 0 -43.5 11.5t-34 26t-31.5 26t-38 11.5q-20 0 -38.5 -14.5
t-23.5 -59.5h-25z" />
    <glyph glyph-name="itilde" unicode="&#x129;" horiz-adv-x="207" 
d="M116 0h-26v528h26v-528zM-58 618q4 50 27.5 74t61.5 24q25 0 43.5 -11.5t34 -26t32 -26t36.5 -11.5q22 0 41.5 14.5t23.5 60.5h25q-4 -49 -28.5 -74t-62.5 -25q-25 0 -43.5 11.5t-34 26t-31.5 26t-38 11.5q-20 0 -38.5 -14.5t-23.5 -59.5h-25z" />
    <glyph glyph-name="Imacron" unicode="&#x12a;" horiz-adv-x="283" 
d="M223 0h-162v20l68 3v667l-68 4v20h162v-20l-68 -4v-667l68 -3v-20zM270 824v-24h-255v24h255z" />
    <glyph glyph-name="imacron" unicode="&#x12b;" horiz-adv-x="207" 
d="M116 0h-26v528h26v-528zM232 638v-24h-255v24h255z" />
    <glyph glyph-name="Ibreve" unicode="&#x12c;" horiz-adv-x="283" 
d="M223 0h-162v20l68 3v667l-68 4v20h162v-20l-68 -4v-667l68 -3v-20zM265 904q-14 -112 -123 -112q-54 0 -85.5 28.5t-36.5 83.5h25q4 -40 27.5 -64t69.5 -24q49 0 71.5 24t26.5 64h25z" />
    <glyph glyph-name="ibreve" unicode="&#x12d;" horiz-adv-x="207" 
d="M116 0h-26v528h26v-528zM227 718q-14 -112 -123 -112q-54 0 -85.5 28.5t-36.5 83.5h25q4 -40 27.5 -64t69.5 -24q49 0 71.5 24t26.5 64h25z" />
    <glyph glyph-name="Iogonek" unicode="&#x12e;" horiz-adv-x="283" 
d="M223 0h-162v20l68 3v667l-68 4v20h162v-20l-68 -4v-667l68 -3v-20zM105 -131q0 -61 58 -61q29 0 48 7v-24q-8 -3 -21 -5.5t-29 -2.5q-34 0 -58 20.5t-24 61.5q0 36 24 71.5t76 74.5l18 -11q-34 -27 -63 -60t-29 -71z" />
    <glyph glyph-name="iogonek" unicode="&#x12f;" horiz-adv-x="207" 
d="M103 721q18 0 22.5 -9.5t4.5 -21.5q0 -13 -4.5 -22t-22.5 -9q-15 0 -20 9t-5 22q0 12 5 21.5t20 9.5zM116 528v-528h-26v528h26zM24 -131q0 -61 58 -61q29 0 48 7v-24q-8 -3 -21 -5.5t-29 -2.5q-34 0 -58 20.5t-24 61.5q0 36 24 71.5t76 74.5l18 -11q-34 -27 -63 -60
t-29 -71z" />
    <glyph glyph-name="Idotaccent" unicode="&#x130;" horiz-adv-x="283" 
d="M223 0h-162v20l68 3v667l-68 4v20h162v-20l-68 -4v-667l68 -3v-20zM141 907q18 0 22.5 -9.5t4.5 -21.5q0 -13 -4.5 -22t-22.5 -9q-15 0 -20 9t-5 22q0 12 5 21.5t20 9.5z" />
    <glyph glyph-name="dotlessi" unicode="&#x131;" horiz-adv-x="207" 
d="M116 0h-26v528h26v-528z" />
    <glyph glyph-name="IJ" unicode="&#x132;" horiz-adv-x="514" 
d="M223 0h-162v20l68 3v667l-68 4v20h162v-20l-68 -4v-667l68 -3v-20zM264 -174q-28 0 -47 4t-32 8v28q14 -6 35 -10t44 -4q72 0 98.5 42.5t26.5 110.5v709h26v-712q0 -49 -14.5 -89t-47.5 -63.5t-89 -23.5z" />
    <glyph glyph-name="ij" unicode="&#x133;" horiz-adv-x="414" 
d="M103 721q18 0 22.5 -9.5t4.5 -21.5q0 -13 -4.5 -22t-22.5 -9q-15 0 -20 9t-5 22q0 12 5 21.5t20 9.5zM116 528v-528h-26v528h26zM285 690q0 12 5 21.5t20 9.5q18 0 22.5 -9.5t4.5 -21.5q0 -13 -4.5 -22t-22.5 -9q-15 0 -20 9t-5 22zM218 -240q-19 0 -34 3t-27 7v26
q15 -7 30.5 -9t30.5 -2q40 0 59.5 26.5t19.5 72.5v644h26v-648q0 -61 -31 -90.5t-74 -29.5z" />
    <glyph glyph-name="Jcircumflex" unicode="&#x134;" horiz-adv-x="231" 
d="M-19 -174q-28 0 -47 4t-32 8v28q14 -6 35 -10t44 -4q72 0 98.5 42.5t26.5 110.5v709h26v-712q0 -49 -14.5 -89t-47.5 -63.5t-89 -23.5zM131 949q12 -20 32 -47.5t42 -55t40 -48.5v-6h-21q-28 28 -55.5 62.5t-48.5 62.5q-21 -28 -49.5 -62.5t-56.5 -62.5h-21v6
q19 21 41 48.5t42.5 55t32.5 47.5h22z" />
    <glyph glyph-name="jcircumflex" unicode="&#x135;" horiz-adv-x="207" 
d="M11 -240q-19 0 -34 3t-27 7v26q15 -7 30.5 -9t30.5 -2q40 0 59.5 26.5t19.5 72.5v644h26v-648q0 -61 -31 -90.5t-74 -29.5zM116 763q12 -20 32 -47.5t42 -55t40 -48.5v-6h-21q-28 28 -55.5 62.5t-48.5 62.5q-21 -28 -49.5 -62.5t-56.5 -62.5h-21v6q19 21 41 48.5t42.5 55
t32.5 47.5h22z" />
    <glyph glyph-name="uni0136" unicode="&#x136;" horiz-adv-x="558" 
d="M558 0h-34l-290 398l-105 -105v-293h-26v714h26v-390q11 13 24 26l26 26l335 338h38l-298 -297zM317 -67q-9 -39 -23.5 -79t-35.5 -75h-17v6q8 15 18 43.5t18 59t11 51.5h29v-6z" />
    <glyph glyph-name="uni0137" unicode="&#x137;" horiz-adv-x="454" 
d="M116 385v-91t-1 -90q17 19 29 32.5l28 31.5l233 260h34l-205 -227l225 -301h-31l-212 283l-100 -111v-172h-26v760h26v-375zM265 -67q-9 -39 -23.5 -79t-35.5 -75h-17v6q8 15 18 43.5t18 59t11 51.5h29v-6z" />
    <glyph glyph-name="kgreenlandic" unicode="&#x138;" horiz-adv-x="454" 
d="M439 528l-205 -227l225 -301h-31l-212 283l-100 -111v-172h-26v528h26v-143v-91t-1 -90q17 19 29 32.5l28 31.5l233 260h34z" />
    <glyph glyph-name="Lacute" unicode="&#x139;" horiz-adv-x="506" 
d="M103 0v714h26v-689h357v-25h-383zM241 945q-26 -34 -67 -77t-81 -76h-21v6q23 20 49.5 48t51 56.5t38.5 49.5h30v-7z" />
    <glyph glyph-name="lacute" unicode="&#x13a;" horiz-adv-x="207" 
d="M117 0h-26v760h26v-760zM229 991q-26 -34 -67 -77t-81 -76h-21v6q23 20 49.5 48t51 56.5t38.5 49.5h30v-7z" />
    <glyph glyph-name="uni013B" unicode="&#x13b;" horiz-adv-x="506" 
d="M103 0v714h26v-689h357v-25h-383zM321 -67q-9 -39 -23.5 -79t-35.5 -75h-17v6q8 15 18 43.5t18 59t11 51.5h29v-6z" />
    <glyph glyph-name="uni013C" unicode="&#x13c;" horiz-adv-x="207" 
d="M117 0h-26v760h26v-760zM142 -67q-9 -39 -23.5 -79t-35.5 -75h-17v6q8 15 18 43.5t18 59t11 51.5h29v-6z" />
    <glyph glyph-name="Lcaron" unicode="&#x13d;" horiz-adv-x="506" 
d="M471 708q-9 -39 -23.5 -79t-35.5 -75h-17v6q8 15 18 43.5t18 59t11 51.5h29v-6zM103 0v714h26v-689h357v-25h-383z" />
    <glyph glyph-name="lcaron" unicode="&#x13e;" horiz-adv-x="207" 
d="M228 754q-9 -39 -23.5 -79t-35.5 -75h-17v6q8 15 18 43.5t18 59t11 51.5h29v-6zM117 0h-26v760h26v-760z" />
    <glyph glyph-name="Ldot" unicode="&#x13f;" horiz-adv-x="506" 
d="M103 0v714h26v-689h357v-25h-383zM357 425q18 0 22.5 -9.5t4.5 -21.5q0 -13 -4.5 -22t-22.5 -9q-15 0 -20 9t-5 22q0 12 5 21.5t20 9.5z" />
    <glyph glyph-name="ldot" unicode="&#x140;" horiz-adv-x="207" 
d="M117 0h-26v760h26v-760zM207 421q18 0 22.5 -9.5t4.5 -21.5q0 -13 -4.5 -22t-22.5 -9q-15 0 -20 9t-5 22q0 12 5 21.5t20 9.5z" />
    <glyph glyph-name="Lslash" unicode="&#x141;" horiz-adv-x="506" 
d="M103 0v283l-78 -50l-15 21l93 60v400h26v-383l171 110l15 -21l-186 -120v-275h357v-25h-383z" />
    <glyph glyph-name="lslash" unicode="&#x142;" horiz-adv-x="207" 
d="M94 0v339l-70 -48l-14 21l84 56v392h26v-377l81 54l12 -19l-93 -62v-356h-26z" />
    <glyph glyph-name="Nacute" unicode="&#x143;" horiz-adv-x="698" 
d="M594 0h-19l-445 655h-2q1 -43 1 -78v-75v-502h-26v714h20l444 -653h2q-1 38 -1 77v73v503h26v-714zM474 945q-26 -34 -67 -77t-81 -76h-21v6q23 20 49.5 48t51 56.5t38.5 49.5h30v-7z" />
    <glyph glyph-name="nacute" unicode="&#x144;" horiz-adv-x="573" 
d="M309 538q86 0 133 -47t47 -145v-346h-26v345q0 88 -40.5 128t-113.5 40q-86 0 -139.5 -51.5t-53.5 -159.5v-302h-26v528h21l4 -111h2q12 31 35.5 58.5t62 45t94.5 17.5zM412 759q-26 -34 -67 -77t-81 -76h-21v6q23 20 49.5 48t51 56.5t38.5 49.5h30v-7z" />
    <glyph glyph-name="uni0145" unicode="&#x145;" horiz-adv-x="698" 
d="M594 0h-19l-445 655h-2q1 -43 1 -78v-75v-502h-26v714h20l444 -653h2q-1 38 -1 77v73v503h26v-714zM387 -67q-9 -39 -23.5 -79t-35.5 -75h-17v6q8 15 18 43.5t18 59t11 51.5h29v-6z" />
    <glyph glyph-name="uni0146" unicode="&#x146;" horiz-adv-x="573" 
d="M309 538q86 0 133 -47t47 -145v-346h-26v345q0 88 -40.5 128t-113.5 40q-86 0 -139.5 -51.5t-53.5 -159.5v-302h-26v528h21l4 -111h2q12 31 35.5 58.5t62 45t94.5 17.5zM325 -67q-9 -39 -23.5 -79t-35.5 -75h-17v6q8 15 18 43.5t18 59t11 51.5h29v-6z" />
    <glyph glyph-name="Ncaron" unicode="&#x147;" horiz-adv-x="698" 
d="M594 0h-19l-445 655h-2q1 -43 1 -78v-75v-502h-26v714h20l444 -653h2q-1 38 -1 77v73v503h26v-714zM337 792q-12 21 -32 48.5t-41.5 55t-40.5 47.5v6h21q28 -28 55.5 -62t48.5 -63q21 29 49.5 63t56.5 62h21v-6q-18 -20 -40.5 -47.5t-43 -55t-32.5 -48.5h-22z" />
    <glyph glyph-name="ncaron" unicode="&#x148;" horiz-adv-x="573" 
d="M309 538q86 0 133 -47t47 -145v-346h-26v345q0 88 -40.5 128t-113.5 40q-86 0 -139.5 -51.5t-53.5 -159.5v-302h-26v528h21l4 -111h2q12 31 35.5 58.5t62 45t94.5 17.5zM275 606q-12 21 -32 48.5t-41.5 55t-40.5 47.5v6h21q28 -28 55.5 -62t48.5 -63q21 29 49.5 63
t56.5 62h21v-6q-18 -20 -40.5 -47.5t-43 -55t-32.5 -48.5h-22z" />
    <glyph glyph-name="napostrophe" unicode="&#x149;" horiz-adv-x="579" 
d="M315 538q86 0 133 -47t47 -145v-346h-26v345q0 88 -40.5 128t-113.5 40q-86 0 -139.5 -51.5t-53.5 -159.5v-302h-26v528h21l4 -111h2q12 31 35.5 58.5t62 45t94.5 17.5zM89 705q-9 -61 -28.5 -122.5t-43.5 -113.5h-17q16 35 29 78.5t22 87t12 79.5h20z" />
    <glyph glyph-name="Eng" unicode="&#x14a;" horiz-adv-x="698" 
d="M445 -174q-23 0 -46 4.5t-34 8.5v25q16 -5 36.5 -8.5t42.5 -3.5q63 0 93.5 38t30.5 120l-438 645h-2q1 -43 1 -78v-75v-502h-26v714h20l444 -653h2q-1 38 -1 77v73v503h26v-711q0 -83 -37.5 -130t-111.5 -47z" />
    <glyph glyph-name="eng" unicode="&#x14b;" horiz-adv-x="573" 
d="M384 -240q-19 0 -34 3t-27 7v26q15 -7 30.5 -9t30.5 -2q40 0 59.5 26.5t19.5 72.5v461q0 88 -40.5 128t-113.5 40q-86 0 -139.5 -51.5t-53.5 -159.5v-302h-26v528h21l4 -111h2q12 31 35.5 58.5t62 45t94.5 17.5q86 0 133 -47t47 -145v-466q0 -61 -31 -90.5t-74 -29.5z
" />
    <glyph glyph-name="Omacron" unicode="&#x14c;" horiz-adv-x="754" 
d="M690 358q0 -108 -34.5 -191t-104 -130t-175.5 -47q-104 0 -173.5 47.5t-104.5 130.5t-35 191t37 190.5t108.5 129t173.5 46.5q148 0 228 -96.5t80 -270.5zM90 359q0 -100 31 -177.5t95 -122t161 -44.5q98 0 161.5 43.5t94 121t30.5 178.5q0 163 -73 252.5t-208 89.5
q-98 0 -163 -44t-97 -121t-32 -176zM505 824v-24h-255v24h255z" />
    <glyph glyph-name="omacron" unicode="&#x14d;" horiz-adv-x="575" 
d="M515 264q0 -77 -24.5 -139.5t-75 -98.5t-129.5 -36q-76 0 -126.5 36t-75.5 98t-25 140q0 126 61.5 200t171.5 74q80 0 129 -36.5t71.5 -98.5t22.5 -139zM86 264q0 -73 22 -129.5t66.5 -88t111.5 -31.5q70 0 114.5 32t66 88.5t21.5 128.5q0 69 -19.5 125.5t-62.5 90
t-114 33.5q-99 0 -152.5 -66t-53.5 -183zM416 638v-24h-255v24h255z" />
    <glyph glyph-name="Obreve" unicode="&#x14e;" horiz-adv-x="754" 
d="M690 358q0 -108 -34.5 -191t-104 -130t-175.5 -47q-104 0 -173.5 47.5t-104.5 130.5t-35 191t37 190.5t108.5 129t173.5 46.5q148 0 228 -96.5t80 -270.5zM90 359q0 -100 31 -177.5t95 -122t161 -44.5q98 0 161.5 43.5t94 121t30.5 178.5q0 163 -73 252.5t-208 89.5
q-98 0 -163 -44t-97 -121t-32 -176zM500 904q-14 -112 -123 -112q-54 0 -85.5 28.5t-36.5 83.5h25q4 -40 27.5 -64t69.5 -24q49 0 71.5 24t26.5 64h25z" />
    <glyph glyph-name="obreve" unicode="&#x14f;" horiz-adv-x="575" 
d="M515 264q0 -77 -24.5 -139.5t-75 -98.5t-129.5 -36q-76 0 -126.5 36t-75.5 98t-25 140q0 126 61.5 200t171.5 74q80 0 129 -36.5t71.5 -98.5t22.5 -139zM86 264q0 -73 22 -129.5t66.5 -88t111.5 -31.5q70 0 114.5 32t66 88.5t21.5 128.5q0 69 -19.5 125.5t-62.5 90
t-114 33.5q-99 0 -152.5 -66t-53.5 -183zM411 718q-14 -112 -123 -112q-54 0 -85.5 28.5t-36.5 83.5h25q4 -40 27.5 -64t69.5 -24q49 0 71.5 24t26.5 64h25z" />
    <glyph glyph-name="Ohungarumlaut" unicode="&#x150;" horiz-adv-x="754" 
d="M690 358q0 -108 -34.5 -191t-104 -130t-175.5 -47q-104 0 -173.5 47.5t-104.5 130.5t-35 191t37 190.5t108.5 129t173.5 46.5q148 0 228 -96.5t80 -270.5zM90 359q0 -100 31 -177.5t95 -122t161 -44.5q98 0 161.5 43.5t94 121t30.5 178.5q0 163 -73 252.5t-208 89.5
q-98 0 -163 -44t-97 -121t-32 -176zM526 945q-22 -35 -54 -77.5t-64 -75.5h-21v6q18 20 39 47t40 56t30 51h30v-7zM366 945q-22 -35 -54 -77.5t-64 -75.5h-21v6q18 20 39 47t40 56t30 51h30v-7z" />
    <glyph glyph-name="ohungarumlaut" unicode="&#x151;" horiz-adv-x="575" 
d="M515 264q0 -77 -24.5 -139.5t-75 -98.5t-129.5 -36q-76 0 -126.5 36t-75.5 98t-25 140q0 126 61.5 200t171.5 74q80 0 129 -36.5t71.5 -98.5t22.5 -139zM86 264q0 -73 22 -129.5t66.5 -88t111.5 -31.5q70 0 114.5 32t66 88.5t21.5 128.5q0 69 -19.5 125.5t-62.5 90
t-114 33.5q-99 0 -152.5 -66t-53.5 -183zM437 759q-22 -35 -54 -77.5t-64 -75.5h-21v6q18 20 39 47t40 56t30 51h30v-7zM277 759q-22 -35 -54 -77.5t-64 -75.5h-21v6q18 20 39 47t40 56t30 51h30v-7z" />
    <glyph glyph-name="OE" unicode="&#x152;" horiz-adv-x="899" 
d="M379 717q25 0 43 -1t44 -2h371v-25h-359v-300h339v-25h-339v-339h359v-25h-381q-16 -1 -35.5 -2t-44.5 -1q-104 0 -173.5 45.5t-104.5 127t-35 189.5t37 188.5t108 125t171 44.5zM379 692q-97 0 -161 -42t-96 -117t-32 -174q0 -101 31 -177t94.5 -118t160.5 -42
q25 0 44 1t32 3v662q-11 1 -29.5 2.5t-43.5 1.5z" />
    <glyph glyph-name="oe" unicode="&#x153;" horiz-adv-x="967" 
d="M714 538q68 0 110 -33t62 -88.5t20 -125.5v-25h-393q-1 -121 53 -186t157 -65q48 0 82.5 7t80.5 28v-27q-38 -17 -76.5 -25t-86.5 -8q-97 0 -151 48t-72 126q-19 -77 -71 -125.5t-143 -48.5q-76 0 -126.5 36t-75.5 98t-25 140q0 126 61.5 200t171.5 74q93 0 143.5 -50
t66.5 -128q20 77 72 127.5t140 50.5zM292 513q-99 0 -152.5 -66t-53.5 -183q0 -73 22 -129.5t66.5 -88t111.5 -31.5q70 0 114.5 32t66 88.5t21.5 128.5q0 69 -19.5 125.5t-62.5 90t-114 33.5zM714 513q-84 0 -137.5 -56.5t-62.5 -165.5h365q1 99 -40 160.5t-125 61.5z" />
    <glyph glyph-name="Racute" unicode="&#x154;" horiz-adv-x="577" 
d="M262 714q83 0 139.5 -16.5t85.5 -57.5t29 -115q0 -79 -42.5 -128.5t-118.5 -69.5l196 -327h-33l-191 320h-198v-320h-26v714h159zM257 689h-128v-344h163q87 0 142 47t55 132q0 64 -25.5 100t-77 50.5t-129.5 14.5zM414 945q-26 -34 -67 -77t-81 -76h-21v6q23 20 49.5 48
t51 56.5t38.5 49.5h30v-7z" />
    <glyph glyph-name="racute" unicode="&#x155;" horiz-adv-x="375" 
d="M278 536q24 0 43.5 -3t37.5 -8l-6 -24q-19 5 -35.5 7.5t-39.5 2.5q-83 0 -122 -58t-39 -156v-297h-26v528h24l2 -101h2q14 46 54.5 77.5t104.5 31.5zM313 759q-26 -34 -67 -77t-81 -76h-21v6q23 20 49.5 48t51 56.5t38.5 49.5h30v-7z" />
    <glyph glyph-name="uni0156" unicode="&#x156;" horiz-adv-x="577" 
d="M262 714q83 0 139.5 -16.5t85.5 -57.5t29 -115q0 -79 -42.5 -128.5t-118.5 -69.5l196 -327h-33l-191 320h-198v-320h-26v714h159zM257 689h-128v-344h163q87 0 142 47t55 132q0 64 -25.5 100t-77 50.5t-129.5 14.5zM335 -67q-9 -39 -23.5 -79t-35.5 -75h-17v6
q8 15 18 43.5t18 59t11 51.5h29v-6z" />
    <glyph glyph-name="uni0157" unicode="&#x157;" horiz-adv-x="375" 
d="M278 536q24 0 43.5 -3t37.5 -8l-6 -24q-19 5 -35.5 7.5t-39.5 2.5q-83 0 -122 -58t-39 -156v-297h-26v528h24l2 -101h2q14 46 54.5 77.5t104.5 31.5zM142 -67q-9 -39 -23.5 -79t-35.5 -75h-17v6q8 15 18 43.5t18 59t11 51.5h29v-6z" />
    <glyph glyph-name="Rcaron" unicode="&#x158;" horiz-adv-x="577" 
d="M262 714q83 0 139.5 -16.5t85.5 -57.5t29 -115q0 -79 -42.5 -128.5t-118.5 -69.5l196 -327h-33l-191 320h-198v-320h-26v714h159zM257 689h-128v-344h163q87 0 142 47t55 132q0 64 -25.5 100t-77 50.5t-129.5 14.5zM277 792q-12 21 -32 48.5t-41.5 55t-40.5 47.5v6h21
q28 -28 55.5 -62t48.5 -63q21 29 49.5 63t56.5 62h21v-6q-18 -20 -40.5 -47.5t-43 -55t-32.5 -48.5h-22z" />
    <glyph glyph-name="rcaron" unicode="&#x159;" horiz-adv-x="375" 
d="M278 536q24 0 43.5 -3t37.5 -8l-6 -24q-19 5 -35.5 7.5t-39.5 2.5q-83 0 -122 -58t-39 -156v-297h-26v528h24l2 -101h2q14 46 54.5 77.5t104.5 31.5zM176 606q-12 21 -32 48.5t-41.5 55t-40.5 47.5v6h21q28 -28 55.5 -62t48.5 -63q21 29 49.5 63t56.5 62h21v-6
q-18 -20 -40.5 -47.5t-43 -55t-32.5 -48.5h-22z" />
    <glyph glyph-name="Sacute" unicode="&#x15a;" horiz-adv-x="543" 
d="M489 180q0 -64 -32.5 -106.5t-87 -63t-119.5 -20.5q-69 0 -113.5 9.5t-80.5 19.5v29q40 -14 87.5 -23.5t108.5 -9.5q57 0 104.5 17.5t76.5 54t29 94.5q0 50 -24 80.5t-68.5 51t-106.5 39.5q-58 19 -103 40.5t-70.5 57t-25.5 94.5q0 60 30.5 100t82 60t114.5 20
q47 0 91.5 -8.5t88.5 -28.5l-11 -23q-46 20 -88.5 27.5t-82.5 7.5q-53 0 -98 -16t-72.5 -49.5t-27.5 -87.5t25 -86t67.5 -50.5t93.5 -34.5q64 -20 111.5 -42.5t74 -58t26.5 -94.5zM397 945q-26 -34 -67 -77t-81 -76h-21v6q23 20 49.5 48t51 56.5t38.5 49.5h30v-7z" />
    <glyph glyph-name="sacute" unicode="&#x15b;" horiz-adv-x="458" 
d="M411 134q0 -67 -49.5 -105.5t-148.5 -38.5q-55 0 -100 10.5t-74 23.5v30q80 -39 174 -39q91 0 131 32t40 87q0 39 -21.5 62.5t-58 38t-80.5 27.5q-46 14 -84.5 28.5t-61 41t-22.5 75.5q0 62 49 96.5t133 34.5q47 0 88 -8.5t72 -21.5l-11 -25q-28 14 -68.5 22t-80.5 8
q-72 0 -113.5 -26.5t-41.5 -79.5q0 -41 20.5 -62.5t55 -33.5t74.5 -25q44 -14 85 -30t67 -43.5t26 -78.5zM354 759q-26 -34 -67 -77t-81 -76h-21v6q23 20 49.5 48t51 56.5t38.5 49.5h30v-7z" />
    <glyph glyph-name="Scircumflex" unicode="&#x15c;" horiz-adv-x="543" 
d="M489 180q0 -64 -32.5 -106.5t-87 -63t-119.5 -20.5q-69 0 -113.5 9.5t-80.5 19.5v29q40 -14 87.5 -23.5t108.5 -9.5q57 0 104.5 17.5t76.5 54t29 94.5q0 50 -24 80.5t-68.5 51t-106.5 39.5q-58 19 -103 40.5t-70.5 57t-25.5 94.5q0 60 30.5 100t82 60t114.5 20
q47 0 91.5 -8.5t88.5 -28.5l-11 -23q-46 20 -88.5 27.5t-82.5 7.5q-53 0 -98 -16t-72.5 -49.5t-27.5 -87.5t25 -86t67.5 -50.5t93.5 -34.5q64 -20 111.5 -42.5t74 -58t26.5 -94.5zM284 949q12 -20 32 -47.5t42 -55t40 -48.5v-6h-21q-28 28 -55.5 62.5t-48.5 62.5
q-21 -28 -49.5 -62.5t-56.5 -62.5h-21v6q19 21 41 48.5t42.5 55t32.5 47.5h22z" />
    <glyph glyph-name="scircumflex" unicode="&#x15d;" horiz-adv-x="458" 
d="M411 134q0 -67 -49.5 -105.5t-148.5 -38.5q-55 0 -100 10.5t-74 23.5v30q80 -39 174 -39q91 0 131 32t40 87q0 39 -21.5 62.5t-58 38t-80.5 27.5q-46 14 -84.5 28.5t-61 41t-22.5 75.5q0 62 49 96.5t133 34.5q47 0 88 -8.5t72 -21.5l-11 -25q-28 14 -68.5 22t-80.5 8
q-72 0 -113.5 -26.5t-41.5 -79.5q0 -41 20.5 -62.5t55 -33.5t74.5 -25q44 -14 85 -30t67 -43.5t26 -78.5zM241 763q12 -20 32 -47.5t42 -55t40 -48.5v-6h-21q-28 28 -55.5 62.5t-48.5 62.5q-21 -28 -49.5 -62.5t-56.5 -62.5h-21v6q19 21 41 48.5t42.5 55t32.5 47.5h22z" />
    <glyph glyph-name="Scedilla" unicode="&#x15e;" horiz-adv-x="543" 
d="M489 180q0 -64 -32.5 -106.5t-87 -63t-119.5 -20.5q-69 0 -113.5 9.5t-80.5 19.5v29q40 -14 87.5 -23.5t108.5 -9.5q57 0 104.5 17.5t76.5 54t29 94.5q0 50 -24 80.5t-68.5 51t-106.5 39.5q-58 19 -103 40.5t-70.5 57t-25.5 94.5q0 60 30.5 100t82 60t114.5 20
q47 0 91.5 -8.5t88.5 -28.5l-11 -23q-46 20 -88.5 27.5t-82.5 7.5q-53 0 -98 -16t-72.5 -49.5t-27.5 -87.5t25 -86t67.5 -50.5t93.5 -34.5q64 -20 111.5 -42.5t74 -58t26.5 -94.5zM357 -145q0 -43 -32 -69t-81 -26q-34 0 -57 6v24q13 -4 25.5 -5t31.5 -1q38 0 63 18t25 52
q0 32 -25 46.5t-78 14.5l44 85h25l-33 -65q44 -2 68 -23t24 -57z" />
    <glyph glyph-name="scedilla" unicode="&#x15f;" horiz-adv-x="458" 
d="M411 134q0 -67 -49.5 -105.5t-148.5 -38.5q-55 0 -100 10.5t-74 23.5v30q80 -39 174 -39q91 0 131 32t40 87q0 39 -21.5 62.5t-58 38t-80.5 27.5q-46 14 -84.5 28.5t-61 41t-22.5 75.5q0 62 49 96.5t133 34.5q47 0 88 -8.5t72 -21.5l-11 -25q-28 14 -68.5 22t-80.5 8
q-72 0 -113.5 -26.5t-41.5 -79.5q0 -41 20.5 -62.5t55 -33.5t74.5 -25q44 -14 85 -30t67 -43.5t26 -78.5zM314 -145q0 -43 -32 -69t-81 -26q-34 0 -57 6v24q13 -4 25.5 -5t31.5 -1q38 0 63 18t25 52q0 32 -25 46.5t-78 14.5l44 85h25l-33 -65q44 -2 68 -23t24 -57z" />
    <glyph glyph-name="Scaron" unicode="&#x160;" horiz-adv-x="543" 
d="M489 180q0 -64 -32.5 -106.5t-87 -63t-119.5 -20.5q-69 0 -113.5 9.5t-80.5 19.5v29q40 -14 87.5 -23.5t108.5 -9.5q57 0 104.5 17.5t76.5 54t29 94.5q0 50 -24 80.5t-68.5 51t-106.5 39.5q-58 19 -103 40.5t-70.5 57t-25.5 94.5q0 60 30.5 100t82 60t114.5 20
q47 0 91.5 -8.5t88.5 -28.5l-11 -23q-46 20 -88.5 27.5t-82.5 7.5q-53 0 -98 -16t-72.5 -49.5t-27.5 -87.5t25 -86t67.5 -50.5t93.5 -34.5q64 -20 111.5 -42.5t74 -58t26.5 -94.5zM260 792q-12 21 -32 48.5t-41.5 55t-40.5 47.5v6h21q28 -28 55.5 -62t48.5 -63
q21 29 49.5 63t56.5 62h21v-6q-18 -20 -40.5 -47.5t-43 -55t-32.5 -48.5h-22z" />
    <glyph glyph-name="scaron" unicode="&#x161;" horiz-adv-x="458" 
d="M411 134q0 -67 -49.5 -105.5t-148.5 -38.5q-55 0 -100 10.5t-74 23.5v30q80 -39 174 -39q91 0 131 32t40 87q0 39 -21.5 62.5t-58 38t-80.5 27.5q-46 14 -84.5 28.5t-61 41t-22.5 75.5q0 62 49 96.5t133 34.5q47 0 88 -8.5t72 -21.5l-11 -25q-28 14 -68.5 22t-80.5 8
q-72 0 -113.5 -26.5t-41.5 -79.5q0 -41 20.5 -62.5t55 -33.5t74.5 -25q44 -14 85 -30t67 -43.5t26 -78.5zM217 606q-12 21 -32 48.5t-41.5 55t-40.5 47.5v6h21q28 -28 55.5 -62t48.5 -63q21 29 49.5 63t56.5 62h21v-6q-18 -20 -40.5 -47.5t-43 -55t-32.5 -48.5h-22z" />
    <glyph glyph-name="uni0162" unicode="&#x162;" horiz-adv-x="505" 
d="M265 0h-26v689h-237v25h501v-25h-238v-689zM324 -145q0 -43 -32 -69t-81 -26q-34 0 -57 6v24q13 -4 25.5 -5t31.5 -1q38 0 63 18t25 52q0 32 -25 46.5t-78 14.5l44 85h25l-33 -65q44 -2 68 -23t24 -57z" />
    <glyph glyph-name="uni0163" unicode="&#x163;" horiz-adv-x="319" 
d="M212 15q25 0 44 3.5t35 9.5v-25q-16 -5 -34.5 -9t-44.5 -4q-70 0 -95.5 40t-25.5 110v363h-81v22l80 3l6 131h21v-131h172v-25h-172v-360q0 -61 20 -94.5t75 -33.5zM264 -145q0 -43 -32 -69t-81 -26q-34 0 -57 6v24q13 -4 25.5 -5t31.5 -1q38 0 63 18t25 52
q0 32 -25 46.5t-78 14.5l44 85h25l-33 -65q44 -2 68 -23t24 -57z" />
    <glyph glyph-name="Tcaron" unicode="&#x164;" horiz-adv-x="505" 
d="M265 0h-26v689h-237v25h501v-25h-238v-689zM241 792q-12 21 -32 48.5t-41.5 55t-40.5 47.5v6h21q28 -28 55.5 -62t48.5 -63q21 29 49.5 63t56.5 62h21v-6q-18 -20 -40.5 -47.5t-43 -55t-32.5 -48.5h-22z" />
    <glyph glyph-name="tcaron" unicode="&#x165;" horiz-adv-x="319" 
d="M366 754q-9 -39 -23.5 -79t-35.5 -75h-17v6q8 15 18 43.5t18 59t11 51.5h29v-6zM212 15q25 0 44 3.5t35 9.5v-25q-16 -5 -34.5 -9t-44.5 -4q-70 0 -95.5 40t-25.5 110v363h-81v22l80 3l6 131h21v-131h172v-25h-172v-360q0 -61 20 -94.5t75 -33.5z" />
    <glyph glyph-name="Tbar" unicode="&#x166;" horiz-adv-x="505" 
d="M239 0v355h-190v25h190v309h-237v25h501v-25h-238v-309h189v-25h-189v-355h-26z" />
    <glyph glyph-name="tbar" unicode="&#x167;" horiz-adv-x="319" 
d="M212 15q25 0 44 3.5t35 9.5v-25q-16 -5 -34.5 -9t-44.5 -4q-70 0 -95.5 40t-25.5 110v145h-73v25h73v193h-81v22l80 3l6 131h21v-131h172v-25h-172v-193h153v-25h-153v-142q0 -61 20 -94.5t75 -33.5z" />
    <glyph glyph-name="Utilde" unicode="&#x168;" horiz-adv-x="712" 
d="M618 252q0 -89 -33.5 -147t-92.5 -86.5t-137 -28.5q-124 0 -192 67t-68 197v460h26v-458q0 -120 61.5 -180.5t173.5 -60.5q107 0 171.5 57.5t64.5 171.5v470h26v-462zM194 804q4 50 27.5 74t61.5 24q25 0 43.5 -11.5t34 -26t32 -26t36.5 -11.5q22 0 41.5 14.5t23.5 60.5
h25q-4 -49 -28.5 -74t-62.5 -25q-25 0 -43.5 11.5t-34 26t-31.5 26t-38 11.5q-20 0 -38.5 -14.5t-23.5 -59.5h-25z" />
    <glyph glyph-name="utilde" unicode="&#x169;" horiz-adv-x="573" 
d="M481 528v-528h-21l-4 111h-2q-11 -30 -35 -58t-62.5 -45.5t-94.5 -17.5q-88 0 -134 49t-46 143v346h26v-342q0 -88 40 -129.5t114 -41.5q86 0 139.5 51.5t53.5 159.5v302h26zM125 618q4 50 27.5 74t61.5 24q25 0 43.5 -11.5t34 -26t32 -26t36.5 -11.5q22 0 41.5 14.5
t23.5 60.5h25q-4 -49 -28.5 -74t-62.5 -25q-25 0 -43.5 11.5t-34 26t-31.5 26t-38 11.5q-20 0 -38.5 -14.5t-23.5 -59.5h-25z" />
    <glyph glyph-name="Umacron" unicode="&#x16a;" horiz-adv-x="712" 
d="M618 252q0 -89 -33.5 -147t-92.5 -86.5t-137 -28.5q-124 0 -192 67t-68 197v460h26v-458q0 -120 61.5 -180.5t173.5 -60.5q107 0 171.5 57.5t64.5 171.5v470h26v-462zM484 824v-24h-255v24h255z" />
    <glyph glyph-name="umacron" unicode="&#x16b;" horiz-adv-x="573" 
d="M481 528v-528h-21l-4 111h-2q-11 -30 -35 -58t-62.5 -45.5t-94.5 -17.5q-88 0 -134 49t-46 143v346h26v-342q0 -88 40 -129.5t114 -41.5q86 0 139.5 51.5t53.5 159.5v302h26zM415 638v-24h-255v24h255z" />
    <glyph glyph-name="Ubreve" unicode="&#x16c;" horiz-adv-x="712" 
d="M618 252q0 -89 -33.5 -147t-92.5 -86.5t-137 -28.5q-124 0 -192 67t-68 197v460h26v-458q0 -120 61.5 -180.5t173.5 -60.5q107 0 171.5 57.5t64.5 171.5v470h26v-462zM479 904q-14 -112 -123 -112q-54 0 -85.5 28.5t-36.5 83.5h25q4 -40 27.5 -64t69.5 -24q49 0 71.5 24
t26.5 64h25z" />
    <glyph glyph-name="ubreve" unicode="&#x16d;" horiz-adv-x="573" 
d="M481 528v-528h-21l-4 111h-2q-11 -30 -35 -58t-62.5 -45.5t-94.5 -17.5q-88 0 -134 49t-46 143v346h26v-342q0 -88 40 -129.5t114 -41.5q86 0 139.5 51.5t53.5 159.5v302h26zM410 718q-14 -112 -123 -112q-54 0 -85.5 28.5t-36.5 83.5h25q4 -40 27.5 -64t69.5 -24
q49 0 71.5 24t26.5 64h25z" />
    <glyph glyph-name="Uring" unicode="&#x16e;" horiz-adv-x="712" 
d="M618 252q0 -89 -33.5 -147t-92.5 -86.5t-137 -28.5q-124 0 -192 67t-68 197v460h26v-458q0 -120 61.5 -180.5t173.5 -60.5q107 0 171.5 57.5t64.5 171.5v470h26v-462zM356 797q-40 0 -70.5 27.5t-30.5 72.5q0 43 30 71.5t71 28.5t70.5 -29.5t29.5 -70.5q0 -44 -29.5 -72
t-70.5 -28zM356 821q34 0 55 22.5t21 53.5q0 32 -22.5 54t-53.5 22q-33 0 -55 -22t-22 -54q0 -31 21.5 -53.5t55.5 -22.5z" />
    <glyph glyph-name="uring" unicode="&#x16f;" horiz-adv-x="573" 
d="M481 528v-528h-21l-4 111h-2q-11 -30 -35 -58t-62.5 -45.5t-94.5 -17.5q-88 0 -134 49t-46 143v346h26v-342q0 -88 40 -129.5t114 -41.5q86 0 139.5 51.5t53.5 159.5v302h26zM287 611q-40 0 -70.5 27.5t-30.5 72.5q0 43 30 71.5t71 28.5t70.5 -29.5t29.5 -70.5
q0 -44 -29.5 -72t-70.5 -28zM287 635q34 0 55 22.5t21 53.5q0 32 -22.5 54t-53.5 22q-33 0 -55 -22t-22 -54q0 -31 21.5 -53.5t55.5 -22.5z" />
    <glyph glyph-name="Uhungarumlaut" unicode="&#x170;" horiz-adv-x="712" 
d="M618 252q0 -89 -33.5 -147t-92.5 -86.5t-137 -28.5q-124 0 -192 67t-68 197v460h26v-458q0 -120 61.5 -180.5t173.5 -60.5q107 0 171.5 57.5t64.5 171.5v470h26v-462zM505 945q-22 -35 -54 -77.5t-64 -75.5h-21v6q18 20 39 47t40 56t30 51h30v-7zM345 945
q-22 -35 -54 -77.5t-64 -75.5h-21v6q18 20 39 47t40 56t30 51h30v-7z" />
    <glyph glyph-name="uhungarumlaut" unicode="&#x171;" horiz-adv-x="573" 
d="M481 528v-528h-21l-4 111h-2q-11 -30 -35 -58t-62.5 -45.5t-94.5 -17.5q-88 0 -134 49t-46 143v346h26v-342q0 -88 40 -129.5t114 -41.5q86 0 139.5 51.5t53.5 159.5v302h26zM436 759q-22 -35 -54 -77.5t-64 -75.5h-21v6q18 20 39 47t40 56t30 51h30v-7zM276 759
q-22 -35 -54 -77.5t-64 -75.5h-21v6q18 20 39 47t40 56t30 51h30v-7z" />
    <glyph glyph-name="Uogonek" unicode="&#x172;" horiz-adv-x="712" 
d="M431 -122q0 -37 14.5 -53.5t43.5 -16.5t48 7v-24q-8 -3 -21 -5.5t-29 -2.5q-34 0 -57.5 21t-23.5 70q0 37 16.5 70t43.5 63q-49 -17 -111 -17q-124 0 -192 67t-68 197v460h26v-458q0 -120 61.5 -180.5t173.5 -60.5q107 0 171.5 57.5t64.5 171.5v470h26v-462
q0 -81 -28 -136t-77 -86q-18 -18 -37 -41t-32 -51t-13 -60z" />
    <glyph glyph-name="uogonek" unicode="&#x173;" horiz-adv-x="573" 
d="M481 528v-528h-21l-4 111h-2q-11 -30 -35 -58t-62.5 -45.5t-94.5 -17.5q-88 0 -134 49t-46 143v346h26v-342q0 -88 40 -129.5t114 -41.5q86 0 139.5 51.5t53.5 159.5v302h26zM389 -131q0 -61 58 -61q29 0 48 7v-24q-8 -3 -21 -5.5t-29 -2.5q-34 0 -58 20.5t-24 61.5
q0 36 24 71.5t76 74.5l18 -11q-34 -27 -63 -60t-29 -71z" />
    <glyph glyph-name="Wcircumflex" unicode="&#x174;" horiz-adv-x="869" 
d="M839 714l-198 -714h-24l-161 582q-7 29 -13 47.5t-12 45.5q-4 -25 -7.5 -39.5t-8.5 -31.5l-163 -604h-24l-195 714h27l148 -544q10 -37 17.5 -63t14.5 -55q7 29 14 55.5t17 63.5l149 543h25l153 -546q11 -39 17.5 -64.5t13.5 -55.5q6 30 12 55.5t17 64.5l154 546h27z
M447 949q12 -20 32 -47.5t42 -55t40 -48.5v-6h-21q-28 28 -55.5 62.5t-48.5 62.5q-21 -28 -49.5 -62.5t-56.5 -62.5h-21v6q19 21 41 48.5t42.5 55t32.5 47.5h22z" />
    <glyph glyph-name="wcircumflex" unicode="&#x175;" horiz-adv-x="685" 
d="M380 388q-8 26 -14.5 46.5t-14.5 47.5h-2q-14 -50 -29 -94l-129 -389h-22l-153 528h29l105 -371q13 -46 19 -69t11 -46h2q6 23 12.5 46t21.5 69l125 371h21l119 -370q23 -73 34 -116h2q3 23 9.5 47.5t17.5 67.5l99 371h26l-141 -528h-22zM355 763q12 -20 32 -47.5t42 -55
t40 -48.5v-6h-21q-28 28 -55.5 62.5t-48.5 62.5q-21 -28 -49.5 -62.5t-56.5 -62.5h-21v6q19 21 41 48.5t42.5 55t32.5 47.5h22z" />
    <glyph glyph-name="Ycircumflex" unicode="&#x176;" horiz-adv-x="505" 
d="M253 301l222 413h30l-238 -439v-275h-26v271l-241 443h30zM265 949q12 -20 32 -47.5t42 -55t40 -48.5v-6h-21q-28 28 -55.5 62.5t-48.5 62.5q-21 -28 -49.5 -62.5t-56.5 -62.5h-21v6q19 21 41 48.5t42.5 55t32.5 47.5h22z" />
    <glyph glyph-name="ycircumflex" unicode="&#x177;" horiz-adv-x="428" 
d="M0 528h27l137 -356q18 -48 30.5 -81t19.5 -54h2q8 22 19.5 54t28.5 77l139 360h27l-249 -643q-25 -65 -54.5 -96.5t-78.5 -31.5q-27 0 -54 10v26q14 -5 26 -8t28 -3q38 0 62.5 26t49.5 90l41 108zM226 763q12 -20 32 -47.5t42 -55t40 -48.5v-6h-21q-28 28 -55.5 62.5
t-48.5 62.5q-21 -28 -49.5 -62.5t-56.5 -62.5h-21v6q19 21 41 48.5t42.5 55t32.5 47.5h22z" />
    <glyph glyph-name="Ydieresis" unicode="&#x178;" horiz-adv-x="505" 
d="M253 301l222 413h30l-238 -439v-275h-26v271l-241 443h30zM137 864q0 12 5 21.5t18 9.5q17 0 21 -9.5t4 -21.5q0 -13 -4 -22t-21 -9q-13 0 -18 9t-5 22zM322 864q0 12 5 21.5t18 9.5q17 0 21 -9.5t4 -21.5q0 -13 -4 -22t-21 -9q-13 0 -18 9t-5 22z" />
    <glyph glyph-name="Zacute" unicode="&#x179;" horiz-adv-x="578" 
d="M538 0h-502v18l453 671h-425v25h462v-18l-453 -671h465v-25zM414 945q-26 -34 -67 -77t-81 -76h-21v6q23 20 49.5 48t51 56.5t38.5 49.5h30v-7z" />
    <glyph glyph-name="zacute" unicode="&#x17a;" horiz-adv-x="456" 
d="M412 0h-371v17l336 486h-309v25h347v-15l-338 -488h335v-25zM353 759q-26 -34 -67 -77t-81 -76h-21v6q23 20 49.5 48t51 56.5t38.5 49.5h30v-7z" />
    <glyph glyph-name="Zdotaccent" unicode="&#x17b;" horiz-adv-x="578" 
d="M538 0h-502v18l453 671h-425v25h462v-18l-453 -671h465v-25zM288 907q18 0 22.5 -9.5t4.5 -21.5q0 -13 -4.5 -22t-22.5 -9q-15 0 -20 9t-5 22q0 12 5 21.5t20 9.5z" />
    <glyph glyph-name="zdotaccent" unicode="&#x17c;" horiz-adv-x="456" 
d="M412 0h-371v17l336 486h-309v25h347v-15l-338 -488h335v-25zM227 721q18 0 22.5 -9.5t4.5 -21.5q0 -13 -4.5 -22t-22.5 -9q-15 0 -20 9t-5 22q0 12 5 21.5t20 9.5z" />
    <glyph glyph-name="Zcaron" unicode="&#x17d;" horiz-adv-x="578" 
d="M538 0h-502v18l453 671h-425v25h462v-18l-453 -671h465v-25zM277 792q-12 21 -32 48.5t-41.5 55t-40.5 47.5v6h21q28 -28 55.5 -62t48.5 -63q21 29 49.5 63t56.5 62h21v-6q-18 -20 -40.5 -47.5t-43 -55t-32.5 -48.5h-22z" />
    <glyph glyph-name="zcaron" unicode="&#x17e;" horiz-adv-x="456" 
d="M412 0h-371v17l336 486h-309v25h347v-15l-338 -488h335v-25zM216 606q-12 21 -32 48.5t-41.5 55t-40.5 47.5v6h21q28 -28 55.5 -62t48.5 -63q21 29 49.5 63t56.5 62h21v-6q-18 -20 -40.5 -47.5t-43 -55t-32.5 -48.5h-22z" />
    <glyph glyph-name="longs" unicode="&#x17f;" horiz-adv-x="294" 
d="M240 740q-62 0 -92.5 -40.5t-30.5 -117.5v-582h-26v585q0 82 38 131t111 49q20 0 36.5 -2t33.5 -7l-3 -26q-16 5 -30.5 7.5t-36.5 2.5z" />
    <glyph glyph-name="uni0180" unicode="&#x180;" horiz-adv-x="583" 
d="M295 -10q-71 0 -115.5 32.5t-62.5 81.5h-2l-4 -104h-22v630h-74v25h74v105h26v-105h242v-25h-242v-105q0 -24 -0.5 -59t-1.5 -60h2q17 58 68.5 95.5t127.5 37.5q105 0 159 -69.5t54 -203.5q0 -76 -23.5 -138.5t-74 -100t-131.5 -37.5zM295 15q99 0 150.5 65.5t51.5 185.5
q0 248 -186 248q-100 0 -148 -67t-48 -184v-10q0 -116 44.5 -177t135.5 -61z" />
    <glyph glyph-name="uni0181" unicode="&#x181;" horiz-adv-x="687" 
d="M177 0v689h-26q-61 0 -88.5 -27.5t-27.5 -74.5q0 -16 3.5 -31.5t6.5 -22.5h-26q-9 21 -9 57q0 52 34.5 88t104.5 36h219q131 0 188 -43t57 -129q0 -61 -36 -107t-105 -58v-2q89 -13 124 -58.5t35 -113.5q0 -73 -33 -118t-90.5 -65t-130.5 -20h-200zM377 388
q209 0 209 153q0 79 -52.5 113.5t-168.5 34.5h-162v-301h174zM385 25q102 0 160.5 42.5t58.5 134.5q0 62 -27.5 97t-79 49.5t-123.5 14.5h-171v-338h182z" />
    <glyph glyph-name="uni0182" unicode="&#x182;" horiz-adv-x="583" 
d="M103 0v714h384v-25h-358v-296h150q72 0 124 -17t80.5 -58.5t28.5 -114.5q0 -102 -57.5 -152.5t-164.5 -50.5h-187zM283 25q102 0 152 42t50 136q0 66 -25.5 102t-73 49.5t-112.5 13.5h-145v-343h154z" />
    <glyph glyph-name="uni0183" unicode="&#x183;" horiz-adv-x="583" 
d="M295 -10q-71 0 -115.5 32.5t-62.5 81.5h-2l-4 -104h-22v760h376v-25h-350v-210q0 -24 -0.5 -59t-1.5 -60h2q17 58 68.5 95.5t127.5 37.5q105 0 159 -69.5t54 -203.5q0 -76 -23.5 -138.5t-74 -100t-131.5 -37.5zM295 15q99 0 150.5 65.5t51.5 185.5q0 248 -186 248
q-100 0 -148 -67t-48 -184v-10q0 -116 44.5 -177t135.5 -61z" />
    <glyph glyph-name="uni0184" unicode="&#x184;" horiz-adv-x="579" 
d="M315 0q-212 0 -212 238v476h26v-321h150q72 0 124 -17.5t80.5 -59t28.5 -113.5q0 -92 -51 -147.5t-146 -55.5zM316 25q80 0 124.5 47.5t44.5 130.5q0 64 -25 100t-72 50.5t-114 14.5h-145v-122q0 -113 46.5 -167t140.5 -54z" />
    <glyph glyph-name="uni0185" unicode="&#x185;" horiz-adv-x="583" 
d="M304 -10q-103 0 -159 66.5t-56 195.5v508h26v-235q0 -24 -0.5 -59t-1.5 -60h2q16 54 66.5 93.5t129.5 39.5q105 0 159 -69.5t54 -203.5q0 -76 -22 -138.5t-70.5 -100t-127.5 -37.5zM304 15q97 0 145 65.5t48 185.5q0 248 -186 248q-100 0 -148 -67t-48 -184v-10
q0 -238 189 -238z" />
    <glyph glyph-name="uni0186" unicode="&#x186;" horiz-adv-x="614" 
d="M206 -10q-56 0 -97.5 8t-74.5 21v25q36 -13 77.5 -21t96.5 -8q104 0 174 47t106 129t36 185q0 98 -31 170.5t-94.5 112.5t-161.5 40q-45 0 -95 -10t-93 -33l-10 25q40 19 91.5 31t107.5 12q108 0 177 -43.5t102.5 -122t33.5 -182.5q0 -109 -39 -196.5t-115.5 -138.5
t-190.5 -51z" />
    <glyph glyph-name="uni0187" unicode="&#x187;" horiz-adv-x="614" 
d="M644 858q20 0 34.5 -3t21.5 -6v-26q-8 4 -22 7.5t-32 3.5q-30 0 -46.5 -18t-16.5 -59v-70l-10 -25q-43 23 -85 30t-83 7q-100 0 -170.5 -44t-107.5 -120.5t-37 -174.5q0 -103 33 -181t99 -121t164 -43q58 0 103 8t81 21v-23q-33 -13 -79 -22t-105 -9q-106 0 -178 46.5
t-108.5 129.5t-36.5 194q0 104 41 186.5t117.5 130t183.5 47.5q81 0 153 -27v65q0 47 24 71.5t62 24.5z" />
    <glyph glyph-name="uni0188" unicode="&#x188;" horiz-adv-x="458" 
d="M302 -10q-84 0 -138 35.5t-79.5 97t-25.5 138.5q0 81 31.5 143.5t89.5 98t139 35.5q28 0 52 -3.5t46 -10.5v138q0 56 25.5 82t67.5 26q19 0 29 -2.5t18 -5.5v-25q-7 3 -18.5 6t-28.5 3q-32 0 -50 -19t-18 -70v-143l-5 -25q-30 14 -59.5 19t-58.5 5q-72 0 -124 -32
t-80.5 -89t-28.5 -131q0 -68 22.5 -124t70 -89t123.5 -33q36 0 71.5 7t64.5 19v-25q-25 -10 -60 -18t-76 -8z" />
    <glyph glyph-name="Dtail" unicode="&#x189;" horiz-adv-x="692" 
d="M280 714q177 0 262.5 -90t85.5 -260q0 -179 -91.5 -271.5t-279.5 -92.5h-154v343h-86v25h86v346h177zM270 689h-141v-321h206v-25h-206v-318h131q341 0 341 338q0 159 -78.5 242.5t-252.5 83.5z" />
    <glyph glyph-name="uni018A" unicode="&#x18a;" horiz-adv-x="762" 
d="M173 0v689h-22q-61 0 -88.5 -27.5t-27.5 -74.5q0 -16 3.5 -31.5t6.5 -22.5h-26q-10 23 -10 57q0 56 36 90t104 34h201q177 0 262.5 -90t85.5 -260q0 -179 -91.5 -271.5t-279.5 -92.5h-154zM330 25q341 0 341 338q0 159 -78.5 242.5t-252.5 83.5h-141v-664h131z" />
    <glyph glyph-name="uni018B" unicode="&#x18b;" horiz-adv-x="583" 
d="M303 0q-119 0 -182.5 45.5t-63.5 149.5q0 78 32 125t90.5 68t137.5 21h127v281h-352v24h378v-714h-167zM307 25h137v359h-125q-70 0 -123 -16.5t-82.5 -57.5t-29.5 -114q0 -91 54.5 -131t168.5 -40z" />
    <glyph glyph-name="uni018C" unicode="&#x18c;" horiz-adv-x="583" 
d="M283 -10q-114 0 -169 68t-55 196q0 137 60 210.5t172 73.5q72 0 116.5 -35.5t60.5 -88.5h2q-1 34 -1.5 66t-0.5 63v192h-348v25h374v-760h-22l-2 113h-2q-18 -50 -62 -86.5t-123 -36.5zM283 15q100 0 142.5 65.5t42.5 182.5v3q0 120 -44 183.5t-133 63.5
q-99 0 -152 -64.5t-53 -194.5q0 -120 48.5 -179.5t148.5 -59.5z" />
    <glyph glyph-name="uni018D" unicode="&#x18d;" horiz-adv-x="567" 
d="M291 538q70 0 120.5 -29t78.5 -81t28 -121q0 -89 -51 -154.5t-170 -101.5q45 -26 75.5 -47.5t45.5 -46.5t15 -62q0 -63 -44.5 -97.5t-122.5 -34.5q-46 0 -91 13.5t-76 38.5l13 24q29 -22 67 -36.5t87 -14.5q68 0 104 27t36 79q0 34 -16 56.5t-47.5 43t-77.5 46.5
q-53 31 -98.5 65t-72.5 81.5t-27 120.5q0 64 26 116t76 83.5t122 31.5zM291 513q-63 0 -107 -26.5t-67 -73t-23 -106.5t22.5 -103.5t62.5 -77t93 -62.5q104 31 161.5 87.5t57.5 155.5q0 62 -25 108.5t-69.5 72t-105.5 25.5z" />
    <glyph glyph-name="uni018E" unicode="&#x18e;" horiz-adv-x="550" 
d="M62 0v25h359v339h-339v25h339v300h-359v25h385v-714h-385z" />
    <glyph glyph-name="uni018F" unicode="&#x18f;" horiz-adv-x="683" 
d="M299 699q-58 0 -103 -9.5t-81 -21.5v26q33 11 79 20.5t105 9.5q152 0 237.5 -95t85.5 -269q0 -173 -73 -271.5t-217 -98.5q-87 0 -149 34t-94.5 111.5t-32.5 209.5v24h539q-2 153 -77 241.5t-219 88.5zM332 15q89 0 146.5 41t86 115t30.5 173h-512q0 -120 28.5 -192
t84 -104.5t136.5 -32.5z" />
    <glyph glyph-name="uni0190" unicode="&#x190;" horiz-adv-x="542" 
d="M306 724q64 0 110.5 -15.5t81.5 -35.5l-13 -23q-35 20 -77.5 34.5t-101.5 14.5q-85 0 -140.5 -42t-55.5 -119q0 -76 45 -115t152 -39h107v-25h-108q-111 0 -167 -44t-56 -129t53 -128t155 -43q60 0 115 14t94 35v-28q-37 -18 -90.5 -32t-118.5 -14q-115 0 -175 51
t-60 145q0 77 40 122.5t103 62.5v2q-30 9 -56.5 27.5t-43 52t-16.5 85.5q0 58 28.5 99.5t78.5 64t116 22.5z" />
    <glyph glyph-name="uni0191" unicode="&#x191;" horiz-adv-x="601" 
d="M125 -245q-59 0 -95 33.5t-36 91.5q0 20 3 37t7 30l27 -9q-3 -8 -6.5 -22t-3.5 -37q0 -46 28 -73t74 -27q56 0 82.5 39.5t26.5 104.5v791h366v-25h-340v-305h321v-25h-321v-437q0 -72 -31 -119.5t-102 -47.5z" />
    <glyph glyph-name="fhook" unicode="&#x192;" horiz-adv-x="374" 
d="M118 -245q-61 0 -91 34t-30 92q0 17 2.5 30t5.5 23l26 -9q-2 -6 -4.5 -17t-2.5 -28q0 -47 22 -74t70 -27q43 0 70 31t27 93v600h-102v22l102 3v75q0 78 33.5 120t110.5 42q25 0 44 -3.5t38 -8.5l-4 -26q-18 7 -38.5 10t-39.5 3q-64 0 -91 -31.5t-27 -105.5v-75h119v-25
h-119v-601q0 -70 -31.5 -108.5t-89.5 -38.5z" />
    <glyph glyph-name="uni0193" unicode="&#x193;" horiz-adv-x="720" 
d="M692 858q20 0 34.5 -3t21.5 -6v-26q-8 4 -22 7.5t-32 3.5q-30 0 -46.5 -18t-16.5 -59v-75l-12 -25q-51 25 -99.5 34.5t-96.5 9.5q-103 0 -178 -45t-115 -123t-40 -177q0 -121 40.5 -196t114.5 -110t174 -35q58 0 106.5 9.5t87.5 25.5v275h-246v25h272v-314
q-48 -23 -105.5 -34.5t-116.5 -11.5q-173 0 -263.5 95t-90.5 270q0 106 43.5 189.5t124.5 132.5t193 49q50 0 95 -8t87 -25v69q0 47 24 71.5t62 24.5z" />
    <glyph glyph-name="Gammalatin" unicode="&#x194;" horiz-adv-x="618" 
d="M285 -240q-46 0 -72 31t-26 81q0 54 25 111.5t60 124.5l-275 606h30l204 -455q19 -41 34 -74t23 -53q8 20 22 52t33 76l201 454h30l-270 -605q34 -67 57.5 -122.5t23.5 -114.5q0 -49 -26 -80.5t-74 -31.5zM287 -215q34 0 52.5 23t18.5 66q0 52 -22 103t-48 106
q-28 -55 -51 -107.5t-23 -101.5q0 -44 20 -66.5t53 -22.5z" />
    <glyph glyph-name="uni0195" unicode="&#x195;" horiz-adv-x="899" 
d="M645 -12q-95 0 -138.5 52t-43.5 148v157q0 88 -40.5 128t-113.5 40q-86 0 -139.5 -51.5t-53.5 -159.5v-302h-26v760h26v-264q0 -22 -0.5 -39.5t-1.5 -39.5h2q11 32 35 59.5t63 44.5t95 17q86 0 133 -47t47 -145v-152q0 -93 37 -137t119 -44q79 0 114 44t35 132v355h26
v-358q0 -92 -43.5 -145t-131.5 -53z" />
    <glyph glyph-name="Iotalatin" unicode="&#x196;" horiz-adv-x="297" 
d="M208 -10q-52 0 -85 31.5t-33 104.5v588h26v-579q0 -68 26 -94t70 -26q22 0 39 3.5t34 10.5v-25q-14 -6 -33 -10t-44 -4z" />
    <glyph glyph-name="uni0197" unicode="&#x197;" horiz-adv-x="283" 
d="M223 714v-20l-68 -4v-301h92v-25h-92v-341l68 -3v-20h-162v20l68 3v341h-93v25h93v301l-68 4v20h162z" />
    <glyph glyph-name="uni0198" unicode="&#x198;" horiz-adv-x="618" 
d="M578 720q11 0 19 -2t14 -4v-25q-6 2 -14.5 4t-19.5 2q-27 0 -51.5 -16t-52.5 -43l-219 -219l304 -417h-34l-290 398l-105 -105v-293h-26v714h26v-390q11 13 24 26l26 26l261 262q43 42 72.5 62t65.5 20z" />
    <glyph glyph-name="uni0199" unicode="&#x199;" horiz-adv-x="454" 
d="M214 763q11 0 21.5 -1t17.5 -3v-25q-7 2 -17 3t-23 1q-97 0 -97 -117v-236v-90t-1 -90h2q13 16 26 31t29 32l233 260h34l-205 -227l225 -301h-31l-212 283l-100 -111v-172h-26v624q0 65 32 102t92 37z" />
    <glyph glyph-name="uni019A" unicode="&#x19a;" horiz-adv-x="207" 
d="M91 0v368h-79v25h79v367h26v-367h78v-25h-78v-368h-26z" />
    <glyph glyph-name="uni019B" unicode="&#x19b;" horiz-adv-x="480" 
d="M-6 0l230 537l-23 69l-118 -34l-7 24l117 34q-21 64 -41 87.5t-60 23.5q-13 0 -24 -2.5t-20 -5.5v26q10 3 21.5 5t28.5 2q34 0 54 -11.5t35 -39.5t32 -78l123 35l7 -24l-122 -35l188 -549q10 -28 21.5 -37.5t25.5 -9.5q8 0 14.5 1.5t10.5 2.5v-24q-5 -2 -11.5 -3.5
t-16.5 -1.5q-28 0 -43 16t-26 47l-127 371q-8 24 -14.5 41.5t-11.5 36.5h-2q-7 -18 -13.5 -36t-14.5 -35l-183 -433h-30z" />
    <glyph glyph-name="uni019C" unicode="&#x19c;" horiz-adv-x="961" 
d="M274 -10q-90 0 -138 47t-48 160v517h26v-516q0 -103 41.5 -143t118.5 -40q60 0 102.5 20.5t65.5 68t23 129.5v481h26v-516q0 -103 41.5 -143t118.5 -40q57 0 100 20.5t67 68t24 129.5v481h26v-714h-21l-4 104h-2q-10 -26 -31.5 -52.5t-59 -44t-99.5 -17.5q-81 0 -121 34
t-56 89h-2q-19 -54 -65.5 -88.5t-132.5 -34.5z" />
    <glyph glyph-name="uni019D" unicode="&#x19d;" horiz-adv-x="698" 
d="M31 -144q-19 0 -31.5 2t-24.5 6v27q14 -4 27 -7t30 -3q34 0 52.5 23.5t18.5 65.5v744h20l444 -653h2q-1 38 -1 77v73v503h26v-714h-19l-445 655h-2q1 -43 1 -78v-75v-536q0 -54 -28.5 -82t-69.5 -28z" />
    <glyph glyph-name="uni019E" unicode="&#x19e;" horiz-adv-x="573" 
d="M453 -232v577q0 88 -38 128t-111 40q-86 0 -137 -51.5t-51 -159.5v-302h-26v528h21l4 -111h2q12 31 34 58.5t59.5 45t93.5 17.5q86 0 130.5 -47t44.5 -145v-578h-26z" />
    <glyph glyph-name="uni019F" unicode="&#x19f;" horiz-adv-x="754" 
d="M690 358q0 -108 -34.5 -191t-104 -130t-175.5 -47q-104 0 -173.5 47.5t-104.5 130.5t-35 191t37 190.5t108.5 129t173.5 46.5q148 0 228 -96.5t80 -270.5zM382 700q-95 0 -159 -42t-97 -115t-36 -168h573q-4 155 -77 240t-204 85zM377 15q97 0 160 42.5t94 118t32 174.5
h-573q2 -97 33.5 -173t94.5 -119t159 -43z" />
    <glyph glyph-name="Ohorn" unicode="&#x1a0;" horiz-adv-x="752" 
d="M690 358q0 -108 -34.5 -191t-104 -130t-175.5 -47q-104 0 -173.5 47.5t-104.5 130.5t-35 191t37 190.5t108.5 129t173.5 46.5q81 0 142 -30t100 -86q23 7 43 23t32.5 46.5t12.5 81.5h22l5 -5q-1 -78 -30 -115.5t-71 -52.5q25 -44 38.5 -101.5t13.5 -127.5zM90 359
q0 -100 31 -177.5t95 -122t161 -44.5q98 0 161.5 43.5t94 121t30.5 178.5q0 163 -73 252.5t-208 89.5q-98 0 -163 -44t-97 -121t-32 -176z" />
    <glyph glyph-name="ohorn" unicode="&#x1a1;" horiz-adv-x="568" 
d="M515 264q0 -77 -24.5 -139.5t-75 -98.5t-129.5 -36q-76 0 -126.5 36t-75.5 98t-25 140q0 126 61.5 200t171.5 74q58 0 99 -19.5t68 -54.5q31 12 53 44t22 102h22l5 -5q-1 -71 -25.5 -108.5t-62.5 -54.5q21 -35 31.5 -80.5t10.5 -97.5zM86 264q0 -73 22 -129.5t66.5 -88
t111.5 -31.5q70 0 114.5 32t66 88.5t21.5 128.5q0 69 -19.5 125.5t-62.5 90t-114 33.5q-99 0 -152.5 -66t-53.5 -183z" />
    <glyph glyph-name="uni01A2" unicode="&#x1a2;" horiz-adv-x="1057" 
d="M670 358q0 -108 -34 -191t-101.5 -130t-168.5 -47q-99 0 -166.5 47.5t-102 130.5t-34.5 191t36.5 190.5t106 129t166.5 46.5q146 0 224 -103q23 42 67.5 71.5t111.5 29.5q85 0 136 -53.5t51 -156.5v-513h-26v507q0 95 -43.5 143t-119.5 48q-56 0 -97.5 -26.5t-63.5 -73.5
q28 -45 43 -105.5t15 -134.5zM90 359q0 -100 30.5 -177.5t92.5 -122t154 -44.5q93 0 154.5 43.5t91.5 121t30 178.5q0 163 -71.5 252.5t-199.5 89.5q-93 0 -155.5 -44t-94.5 -121t-32 -176z" />
    <glyph glyph-name="uni01A3" unicode="&#x1a3;" horiz-adv-x="812" 
d="M515 264q0 -77 -24.5 -139.5t-75 -98.5t-129.5 -36q-76 0 -126.5 36t-75.5 98t-25 140q0 126 61.5 200t171.5 74q50 0 87.5 -15t64.5 -42q20 21 53 39t83 18q73 0 110.5 -45t37.5 -131v-602h-26v599q0 79 -31 116.5t-91 37.5q-41 0 -69.5 -14t-50.5 -37q28 -37 41.5 -88
t13.5 -110zM86 264q0 -73 22 -129.5t66.5 -88t111.5 -31.5q70 0 114.5 32t66 88.5t21.5 128.5q0 69 -19.5 125.5t-62.5 90t-114 33.5q-99 0 -152.5 -66t-53.5 -183z" />
    <glyph glyph-name="uni01A4" unicode="&#x1a4;" horiz-adv-x="643" 
d="M173 0v689h-22q-61 0 -88.5 -27.5t-27.5 -74.5q0 -16 3.5 -31.5t6.5 -22.5h-26q-9 21 -9 57q0 52 34.5 88t104.5 36h191q119 0 182.5 -45.5t63.5 -149.5q0 -77 -32 -124.5t-90.5 -68.5t-137.5 -21h-127v-305h-26zM324 330q70 0 123 16.5t82.5 57.5t29.5 114
q0 91 -54.5 131t-168.5 40h-137v-359h125z" />
    <glyph glyph-name="uni01A5" unicode="&#x1a5;" horiz-adv-x="583" 
d="M218 765q21 0 37 -2.5t26 -5.5v-26q-11 4 -27 6.5t-36 2.5q-50 0 -75 -28t-25 -90v-97q0 -24 -0.5 -59t-1.5 -60h2q11 35 36 65t65 48.5t95 18.5q105 0 159 -68.5t54 -200.5q0 -133 -58.5 -206t-164.5 -73q-79 0 -124 37t-62 89h-2q2 -34 2 -66.5v-64.5v-217h-26v857
q0 66 32.5 103t93.5 37zM314 513q-96 0 -145.5 -65.5t-49.5 -182.5v-3q0 -127 50 -187t135 -60q92 0 144 64t52 190q0 124 -47 184t-139 60z" />
    <glyph glyph-name="uni01A6" unicode="&#x1a6;" horiz-adv-x="577" 
d="M518 -100l-191 320h-198v-220h-26v714h26v-100h133q83 0 139.5 -16.5t85.5 -57.5t29 -115q0 -79 -42.5 -128.5t-118.5 -69.5l196 -327h-33zM292 245q87 0 142 47t55 132q0 64 -25.5 100t-77 50.5t-129.5 14.5h-128v-344h163z" />
    <glyph glyph-name="uni01A7" unicode="&#x1a7;" horiz-adv-x="543" 
d="M267 724q96 0 156 -39t60 -129q0 -59 -27 -96t-73.5 -61.5t-104.5 -46.5q-60 -23 -105.5 -45t-70.5 -54t-25 -84q0 -55 27.5 -89t74.5 -49.5t103 -15.5q61 0 111 10.5t90 24.5v-27q-33 -11 -83.5 -22t-119.5 -11q-65 0 -117 18.5t-82.5 57.5t-30.5 101t28.5 98.5t78 61
t110.5 48.5q53 21 96 42t68 52.5t25 83.5q0 80 -52.5 113t-137.5 33q-40 0 -87 -9t-92 -29l-8 22q44 20 92.5 30.5t95.5 10.5z" />
    <glyph glyph-name="uni01A8" unicode="&#x1a8;" horiz-adv-x="458" 
d="M222 538q84 0 130 -31t46 -95q0 -46 -24 -74t-63 -44.5t-86 -31.5q-46 -14 -83 -30.5t-58.5 -40.5t-21.5 -62q0 -55 37.5 -84.5t128.5 -29.5q47 0 94.5 10t84.5 26v-26q-28 -13 -77.5 -24t-104.5 -11q-99 0 -144.5 35t-45.5 102q0 50 26 79t67.5 47t87.5 33
q41 14 76 27.5t57 36t22 60.5q0 53 -39.5 78t-111.5 25q-40 0 -82.5 -8t-70.5 -22l-9 25q32 13 74.5 21.5t89.5 8.5z" />
    <glyph glyph-name="uni01A9" unicode="&#x1a9;" horiz-adv-x="578" 
d="M36 0v21l282 351l-272 323v19h464v-26h-323q-28 0 -51 1t-55 1l265 -314v-6l-275 -344h467v-26h-502z" />
    <glyph glyph-name="uni01AA" unicode="&#x1aa;" horiz-adv-x="351" 
d="M115 765q58 0 90.5 -35.5t32.5 -95.5v-725q0 -66 28 -93.5t74 -27.5q20 0 34.5 3t24.5 7v-25q-23 -10 -58 -10q-61 0 -95 35t-34 104v637h-90q-60 0 -96 28.5t-36 84.5q0 49 33.5 81t91.5 32zM113 740q-46 0 -71 -24.5t-25 -62.5q0 -42 27 -65.5t85 -23.5h83v59
q0 62 -26 89.5t-73 27.5z" />
    <glyph glyph-name="uni01AB" unicode="&#x1ab;" horiz-adv-x="319" 
d="M187 -240q-21 0 -34.5 3.5t-23.5 7.5v26q12 -6 27 -9.5t33 -3.5q35 0 56 21.5t21 66.5v124q-22 -6 -54 -6q-70 0 -95.5 40t-25.5 110v363h-81v22l80 3l6 131h21v-131h172v-25h-172v-360q0 -61 20 -94.5t75 -33.5q25 0 44 3.5t35 9.5v-159q0 -52 -28.5 -80.5t-75.5 -28.5z
" />
    <glyph glyph-name="uni01AC" unicode="&#x1ac;" horiz-adv-x="493" 
d="M239 0v689h-83q-64 0 -92 -27.5t-28 -73.5q0 -19 4.5 -34.5t7.5 -22.5h-28q-4 9 -7.5 24t-3.5 34q0 51 34.5 88t110.5 37h349v-25h-238v-689h-26z" />
    <glyph glyph-name="uni01AD" unicode="&#x1ad;" horiz-adv-x="319" 
d="M196 765q21 0 34.5 -3t23.5 -8v-26q-12 6 -27 9.5t-33 3.5q-35 0 -56 -21.5t-21 -66.5v-125h172v-25h-172v-360q0 -61 20 -94.5t75 -33.5q25 0 44 3.5t35 9.5v-25q-16 -5 -34.5 -9t-44.5 -4q-70 0 -95.5 40t-25.5 110v363h-81v22l82 3v128q0 52 29 80.5t75 28.5z" />
    <glyph glyph-name="uni01AE" unicode="&#x1ae;" horiz-adv-x="505" 
d="M368 -153q-61 0 -95 35t-34 104v703h-237v25h501v-25h-238v-696q0 -66 28 -93.5t74 -27.5q20 0 34.5 3t24.5 7v-25q-23 -10 -58 -10z" />
    <glyph glyph-name="Uhorn" unicode="&#x1af;" horiz-adv-x="712" 
d="M618 610q24 8 44 24t32 46t12 80h22l5 -5q-1 -76 -29 -116t-86 -54v-333q0 -89 -33.5 -147t-92.5 -86.5t-137 -28.5q-124 0 -192 67t-68 197v460h26v-458q0 -120 61.5 -180.5t173.5 -60.5q107 0 171.5 57.5t64.5 171.5v470h26v-104z" />
    <glyph glyph-name="uhorn" unicode="&#x1b0;" horiz-adv-x="573" 
d="M586 605q-1 -70 -27 -110t-78 -55v-440h-21l-4 111h-2q-11 -30 -35 -58t-62.5 -45.5t-94.5 -17.5q-88 0 -134 49t-46 143v346h26v-342q0 -88 40 -129.5t114 -41.5q86 0 139.5 51.5t53.5 159.5v302h26v-63q34 12 56 44t22 101h22z" />
    <glyph glyph-name="Upsilonlatin" unicode="&#x1b1;" horiz-adv-x="771" 
d="M387 14q85 0 150.5 39t103 109.5t37.5 166.5q0 94 -28 160t-77 114t-113 88v23h270v-25h-227q58 -36 103.5 -84t72 -115.5t26.5 -160.5q0 -100 -40.5 -177t-112 -120t-165.5 -43q-95 0 -167 40t-112.5 116t-40.5 184q0 93 25.5 160.5t71 116t104.5 83.5h-226v25h271v-23
q-70 -39 -119 -88.5t-74.5 -116t-25.5 -157.5q0 -100 37.5 -170.5t104 -107.5t151.5 -37z" />
    <glyph glyph-name="uni01B2" unicode="&#x1b2;" horiz-adv-x="712" 
d="M355 -10q-124 0 -192 67t-68 197v460h26v-458q0 -120 61.5 -180.5t173.5 -60.5q107 0 171.5 57.5t64.5 171.5v363q0 49 -23.5 70.5t-56.5 21.5q-25 0 -44.5 -7t-28.5 -12v27q11 5 29.5 11t46.5 6q45 0 74 -29.5t29 -86.5v-356q0 -89 -33.5 -147t-92.5 -86.5t-137 -28.5z
" />
    <glyph glyph-name="uni01B3" unicode="&#x1b3;" horiz-adv-x="565" 
d="M241 0v271l-241 443h30l223 -414l173 350q15 30 34.5 52.5t59.5 22.5q14 0 24 -2.5t16 -5.5v-25q-6 3 -15 5.5t-22 2.5q-31 0 -46 -18t-30 -49l-180 -358v-275h-26z" />
    <glyph glyph-name="uni01B4" unicode="&#x1b4;" horiz-adv-x="518" 
d="M471 536q27 0 41 -7v-26q-7 3 -16 5.5t-22 2.5q-31 0 -46.5 -17.5t-28.5 -49.5l-218 -559q-25 -65 -54.5 -96.5t-78.5 -31.5q-27 0 -54 10v26q14 -5 26 -8t28 -3q38 0 62.5 26t49.5 90l41 108l-201 522h27l137 -356q18 -48 30.5 -81t19.5 -54h2q8 22 19.5 54t28.5 77
l114 293q12 32 32.5 53.5t60.5 21.5z" />
    <glyph glyph-name="uni01B5" unicode="&#x1b5;" horiz-adv-x="578" 
d="M82 382h200l207 307h-425v25h462v-18l-212 -314h175v-25h-192l-224 -332h465v-25h-502v18l229 339h-183v25z" />
    <glyph glyph-name="uni01B6" unicode="&#x1b6;" horiz-adv-x="456" 
d="M415 528v-15l-159 -230h157v-25h-175l-161 -233h335v-25h-371v17l167 241h-149v25h166l152 220h-309v25h347z" />
    <glyph glyph-name="uni01B7" unicode="&#x1b7;" horiz-adv-x="578" 
d="M472 714v-21l-257 -296q137 0 203.5 -47t66.5 -151q0 -96 -63 -152.5t-180 -56.5q-61 0 -112 12t-89 32v30q39 -22 92.5 -35.5t108.5 -13.5q104 0 160 48.5t56 135.5q0 173 -224 173h-51v25l253 292h-382v25h418z" />
    <glyph glyph-name="uni01B8" unicode="&#x1b8;" horiz-adv-x="550" 
d="M291 -10q-117 0 -179 55t-62 151q0 201 270 201l-247 296v21h412v-25h-377l244 -292v-25h-39q-122 0 -179 -44t-57 -132q0 -87 55.5 -134t158.5 -47q59 0 111.5 13.5t91.5 33.5v-28q-37 -18 -88 -31t-115 -13z" />
    <glyph glyph-name="uni01B9" unicode="&#x1b9;" horiz-adv-x="437" 
d="M249 -240q-107 0 -165.5 57t-58.5 154q0 104 68 164t219 60l-267 313v20h358v-25h-319l263 -311v-22h-38q-131 0 -194 -49.5t-63 -147.5q0 -87 51 -137.5t146 -50.5q93 0 166 35v-28q-35 -15 -75.5 -23.5t-90.5 -8.5z" />
    <glyph glyph-name="uni01BA" unicode="&#x1ba;" horiz-adv-x="463" 
d="M200 -240q-85 0 -128 30.5t-43 86.5t39 86t123 38q54 6 91.5 19t57 41.5t19.5 77.5q0 56 -28 82t-74.5 34t-100.5 8h-36v25l208 215h-274v25h316v-19l-216 -221q43 1 84 -4t74.5 -20t53.5 -45t20 -80q0 -57 -23 -91t-66.5 -50t-105.5 -22q-77 -7 -105.5 -32t-28.5 -69
q0 -90 143 -90q50 0 90.5 6.5t79.5 19.5v-26q-28 -10 -71 -17.5t-99 -7.5z" />
    <glyph glyph-name="uni01BB" unicode="&#x1bb;" horiz-adv-x="572" 
d="M271 772q92 0 145 -49t53 -137q0 -64 -23 -111.5t-62 -96.5h104v-25h-124l-269 -327v-1h396v-25h-432v23l274 330h-226v25h246q42 52 65.5 98t23.5 110q0 78 -45.5 119.5t-127.5 41.5q-52 0 -97 -19t-80 -45l-14 21q41 31 88 49.5t105 18.5z" />
    <glyph glyph-name="uni01BC" unicode="&#x1bc;" horiz-adv-x="563" 
d="M264 -10q-65 0 -107.5 14.5t-65.5 27.5v30q33 -19 73 -33t100 -14q56 0 102.5 21t75 66.5t28.5 116.5q0 95 -60 137t-160 42h-84v291h-99v25h405v-25h-280v-266h67q106 0 172 -50t66 -154q0 -79 -32 -130t-85 -75t-116 -24z" />
    <glyph glyph-name="uni01BD" unicode="&#x1bd;" horiz-adv-x="415" 
d="M179 -7q-49 0 -89 11t-62 23v30q31 -16 70 -27.5t86 -11.5q63 0 99.5 20t52.5 51.5t16 67.5q0 56 -35 89t-114 33h-90v224h-77v25h334v-25h-231v-199h73q82 0 124.5 -41t42.5 -106q0 -44 -20.5 -81.5t-64.5 -60t-115 -22.5z" />
    <glyph glyph-name="uni01BE" unicode="&#x1be;" horiz-adv-x="439" 
d="M202 -10q-55 0 -92.5 8.5t-57.5 16.5v29q32 -13 67.5 -21t81.5 -8q64 0 100.5 16.5t51.5 44.5t15 62q0 44 -20 67t-50.5 35.5t-62.5 22.5q-26 9 -44.5 21t-28.5 38t-10 75v106h-81v22l80 3l6 131h21v-131h172v-25h-172v-101q0 -42 8 -65t23 -33.5t36 -17.5
q35 -11 69.5 -26t57.5 -42.5t23 -76.5q0 -64 -45 -107.5t-148 -43.5z" />
    <glyph glyph-name="uni01BF" unicode="&#x1bf;" horiz-adv-x="600" 
d="M320 538q96 0 150.5 -58.5t54.5 -162.5q0 -151 -105 -236t-303 -86v-227h-26v760h22l2 -132h2q10 37 34.5 69t66 52.5t102.5 20.5zM320 513q-72 0 -117 -32t-65.5 -89.5t-20.5 -135.5v-236q180 1 280.5 76t100.5 221q0 92 -47.5 144t-130.5 52z" />
    <glyph glyph-name="uni01C0" unicode="&#x1c0;" horiz-adv-x="358" 
d="M166 0v760h26v-760h-26z" />
    <glyph glyph-name="uni01C1" unicode="&#x1c1;" horiz-adv-x="535" 
d="M166 0v760h26v-760h-26zM343 0v760h26v-760h-26z" />
    <glyph glyph-name="uni01C2" unicode="&#x1c2;" horiz-adv-x="516" 
d="M271 760v-281h177v-25h-177v-142h177v-25h-177v-287h-26v287h-177v25h177v142h-177v25h177v281h26z" />
    <glyph glyph-name="uni01C3" unicode="&#x1c3;" horiz-adv-x="221" 
d="M125 174h-25l-2 540h29zM85 23q0 12 5 21.5t20 9.5q18 0 22.5 -9.5t4.5 -21.5q0 -13 -4.5 -22t-22.5 -9q-15 0 -20 9t-5 22z" />
    <glyph glyph-name="uni01C4" unicode="&#x1c4;" horiz-adv-x="1260" 
d="M628 364q0 -179 -91.5 -271.5t-279.5 -92.5h-154v714h177q177 0 262.5 -90t85.5 -260zM601 363q0 159 -78.5 242.5t-252.5 83.5h-141v-664h131q341 0 341 338zM1220 0h-502v18l453 671h-425v25h462v-18l-453 -671h465v-25zM958 792q-12 21 -32 48.5t-41.5 55t-40.5 47.5
v6h21q28 -28 55.5 -62t48.5 -63q21 29 49.5 63t56.5 62h21v-6q-18 -20 -40.5 -47.5t-43 -55t-32.5 -48.5h-22z" />
    <glyph glyph-name="uni01C5" unicode="&#x1c5;" horiz-adv-x="1147" 
d="M628 364q0 -179 -91.5 -271.5t-279.5 -92.5h-154v714h177q177 0 262.5 -90t85.5 -260zM601 363q0 159 -78.5 242.5t-252.5 83.5h-141v-664h131q341 0 341 338zM1104 0h-371v17l336 486h-309v25h347v-15l-338 -488h335v-25zM905 606q-12 21 -32 48.5t-41.5 55t-40.5 47.5
v6h21q28 -28 55.5 -62t48.5 -63q21 29 49.5 63t56.5 62h21v-6q-18 -20 -40.5 -47.5t-43 -55t-32.5 -48.5h-22z" />
    <glyph glyph-name="uni01C6" unicode="&#x1c6;" horiz-adv-x="1039" 
d="M283 -10q-114 0 -169 68t-55 196q0 137 60 210.5t172 73.5q72 0 116.5 -35.5t60.5 -88.5h2q-1 34 -1.5 66t-0.5 63v217h26v-760h-22l-2 113h-2q-18 -50 -62 -86.5t-123 -36.5zM283 15q100 0 142.5 65.5t42.5 182.5v3q0 120 -44 183.5t-133 63.5q-99 0 -152 -64.5
t-53 -194.5q0 -120 48.5 -179.5t148.5 -59.5zM995 0h-371v17l336 486h-309v25h347v-15l-338 -488h335v-25zM797 606q-12 21 -32 48.5t-41.5 55t-40.5 47.5v6h21q28 -28 55.5 -62t48.5 -63q21 29 49.5 63t56.5 62h21v-6q-18 -20 -40.5 -47.5t-43 -55t-32.5 -48.5h-22z" />
    <glyph glyph-name="uni01C7" unicode="&#x1c7;" horiz-adv-x="738" 
d="M103 0v714h26v-689h357v-25h-383zM487 -174q-28 0 -47 4t-32 8v28q14 -6 35 -10t44 -4q72 0 98.5 42.5t26.5 110.5v709h26v-712q0 -49 -14.5 -89t-47.5 -63.5t-89 -23.5z" />
    <glyph glyph-name="uni01C8" unicode="&#x1c8;" horiz-adv-x="713" 
d="M103 0v714h26v-689h357v-25h-383zM584 690q0 12 5 21.5t20 9.5q18 0 22.5 -9.5t4.5 -21.5q0 -13 -4.5 -22t-22.5 -9q-15 0 -20 9t-5 22zM517 -240q-19 0 -34 3t-27 7v26q15 -7 30.5 -9t30.5 -2q40 0 59.5 26.5t19.5 72.5v644h26v-648q0 -61 -31 -90.5t-74 -29.5z" />
    <glyph glyph-name="uni01C9" unicode="&#x1c9;" horiz-adv-x="414" 
d="M117 0h-26v760h26v-760zM285 690q0 12 5 21.5t20 9.5q18 0 22.5 -9.5t4.5 -21.5q0 -13 -4.5 -22t-22.5 -9q-15 0 -20 9t-5 22zM218 -240q-19 0 -34 3t-27 7v26q15 -7 30.5 -9t30.5 -2q40 0 59.5 26.5t19.5 72.5v644h26v-648q0 -61 -31 -90.5t-74 -29.5z" />
    <glyph glyph-name="uni01CA" unicode="&#x1ca;" horiz-adv-x="929" 
d="M594 0h-19l-445 655h-2q1 -43 1 -78v-75v-502h-26v714h20l444 -653h2q-1 38 -1 77v73v503h26v-714zM679 -174q-28 0 -47 4t-32 8v28q14 -6 35 -10t44 -4q72 0 98.5 42.5t26.5 110.5v709h26v-712q0 -49 -14.5 -89t-47.5 -63.5t-89 -23.5z" />
    <glyph glyph-name="uni01CB" unicode="&#x1cb;" horiz-adv-x="904" 
d="M594 0h-19l-445 655h-2q1 -43 1 -78v-75v-502h-26v714h20l444 -653h2q-1 38 -1 77v73v503h26v-714zM776 690q0 12 5 21.5t20 9.5q18 0 22.5 -9.5t4.5 -21.5q0 -13 -4.5 -22t-22.5 -9q-15 0 -20 9t-5 22zM709 -240q-19 0 -34 3t-27 7v26q15 -7 30.5 -9t30.5 -2
q40 0 59.5 26.5t19.5 72.5v644h26v-648q0 -61 -31 -90.5t-74 -29.5z" />
    <glyph glyph-name="uni01CC" unicode="&#x1cc;" horiz-adv-x="780" 
d="M309 538q86 0 133 -47t47 -145v-346h-26v345q0 88 -40.5 128t-113.5 40q-86 0 -139.5 -51.5t-53.5 -159.5v-302h-26v528h21l4 -111h2q12 31 35.5 58.5t62 45t94.5 17.5zM651 690q0 12 5 21.5t20 9.5q18 0 22.5 -9.5t4.5 -21.5q0 -13 -4.5 -22t-22.5 -9q-15 0 -20 9t-5 22
zM584 -240q-19 0 -34 3t-27 7v26q15 -7 30.5 -9t30.5 -2q40 0 59.5 26.5t19.5 72.5v644h26v-648q0 -61 -31 -90.5t-74 -29.5z" />
    <glyph glyph-name="uni01CD" unicode="&#x1cd;" horiz-adv-x="577" 
d="M549 0l-104 271h-310l-107 -271h-28l282 716h25l270 -716h-28zM325 594q-6 17 -14 38.5t-18 49.5q-7 -22 -16 -45.5t-17 -43.5l-116 -297h291zM281 792q-12 21 -32 48.5t-41.5 55t-40.5 47.5v6h21q28 -28 55.5 -62t48.5 -63q21 29 49.5 63t56.5 62h21v-6
q-18 -20 -40.5 -47.5t-43 -55t-32.5 -48.5h-22z" />
    <glyph glyph-name="uni01CE" unicode="&#x1ce;" horiz-adv-x="511" 
d="M264 537q82 0 123 -44.5t41 -142.5v-350h-22l-4 103h-2q-21 -46 -66 -79.5t-126 -33.5q-79 0 -119.5 38t-40.5 101q0 79 66.5 118.5t184.5 46.5l103 6v43q0 90 -34 129.5t-104 39.5q-40 0 -77.5 -9t-80.5 -31l-9 26q40 18 81.5 28.5t85.5 10.5zM301 270
q-102 -5 -163.5 -38t-61.5 -103q0 -53 34 -83.5t98 -30.5q100 0 146.5 57t47.5 148v55zM237 606q-12 21 -32 48.5t-41.5 55t-40.5 47.5v6h21q28 -28 55.5 -62t48.5 -63q21 29 49.5 63t56.5 62h21v-6q-18 -20 -40.5 -47.5t-43 -55t-32.5 -48.5h-22z" />
    <glyph glyph-name="uni01CF" unicode="&#x1cf;" horiz-adv-x="283" 
d="M223 0h-162v20l68 3v667l-68 4v20h162v-20l-68 -4v-667l68 -3v-20zM128 792q-12 21 -32 48.5t-41.5 55t-40.5 47.5v6h21q28 -28 55.5 -62t48.5 -63q21 29 49.5 63t56.5 62h21v-6q-18 -20 -40.5 -47.5t-43 -55t-32.5 -48.5h-22z" />
    <glyph glyph-name="uni01D0" unicode="&#x1d0;" horiz-adv-x="207" 
d="M116 0h-26v528h26v-528zM90 606q-12 21 -32 48.5t-41.5 55t-40.5 47.5v6h21q28 -28 55.5 -62t48.5 -63q21 29 49.5 63t56.5 62h21v-6q-18 -20 -40.5 -47.5t-43 -55t-32.5 -48.5h-22z" />
    <glyph glyph-name="uni01D1" unicode="&#x1d1;" horiz-adv-x="754" 
d="M690 358q0 -108 -34.5 -191t-104 -130t-175.5 -47q-104 0 -173.5 47.5t-104.5 130.5t-35 191t37 190.5t108.5 129t173.5 46.5q148 0 228 -96.5t80 -270.5zM90 359q0 -100 31 -177.5t95 -122t161 -44.5q98 0 161.5 43.5t94 121t30.5 178.5q0 163 -73 252.5t-208 89.5
q-98 0 -163 -44t-97 -121t-32 -176zM363 792q-12 21 -32 48.5t-41.5 55t-40.5 47.5v6h21q28 -28 55.5 -62t48.5 -63q21 29 49.5 63t56.5 62h21v-6q-18 -20 -40.5 -47.5t-43 -55t-32.5 -48.5h-22z" />
    <glyph glyph-name="uni01D2" unicode="&#x1d2;" horiz-adv-x="575" 
d="M515 264q0 -77 -24.5 -139.5t-75 -98.5t-129.5 -36q-76 0 -126.5 36t-75.5 98t-25 140q0 126 61.5 200t171.5 74q80 0 129 -36.5t71.5 -98.5t22.5 -139zM86 264q0 -73 22 -129.5t66.5 -88t111.5 -31.5q70 0 114.5 32t66 88.5t21.5 128.5q0 69 -19.5 125.5t-62.5 90
t-114 33.5q-99 0 -152.5 -66t-53.5 -183zM274 606q-12 21 -32 48.5t-41.5 55t-40.5 47.5v6h21q28 -28 55.5 -62t48.5 -63q21 29 49.5 63t56.5 62h21v-6q-18 -20 -40.5 -47.5t-43 -55t-32.5 -48.5h-22z" />
    <glyph glyph-name="uni01D3" unicode="&#x1d3;" horiz-adv-x="712" 
d="M618 252q0 -89 -33.5 -147t-92.5 -86.5t-137 -28.5q-124 0 -192 67t-68 197v460h26v-458q0 -120 61.5 -180.5t173.5 -60.5q107 0 171.5 57.5t64.5 171.5v470h26v-462zM343 792q-12 21 -32 48.5t-41.5 55t-40.5 47.5v6h21q28 -28 55.5 -62t48.5 -63q21 29 49.5 63t56.5 62
h21v-6q-18 -20 -40.5 -47.5t-43 -55t-32.5 -48.5h-22z" />
    <glyph glyph-name="uni01D4" unicode="&#x1d4;" horiz-adv-x="573" 
d="M481 528v-528h-21l-4 111h-2q-11 -30 -35 -58t-62.5 -45.5t-94.5 -17.5q-88 0 -134 49t-46 143v346h26v-342q0 -88 40 -129.5t114 -41.5q86 0 139.5 51.5t53.5 159.5v302h26zM273 606q-12 21 -32 48.5t-41.5 55t-40.5 47.5v6h21q28 -28 55.5 -62t48.5 -63q21 29 49.5 63
t56.5 62h21v-6q-18 -20 -40.5 -47.5t-43 -55t-32.5 -48.5h-22z" />
    <glyph glyph-name="uni01D5" unicode="&#x1d5;" horiz-adv-x="712" 
d="M485 982v-24h-255v24h255zM263 895q17 0 21 -9.5t4 -21.5q0 -13 -4 -22t-21 -9q-13 0 -18 9t-5 22q0 12 5 21.5t18 9.5zM448 895q17 0 21 -9.5t4 -21.5q0 -13 -4 -22t-21 -9q-13 0 -18 9t-5 22q0 12 5 21.5t18 9.5zM618 252q0 -89 -33.5 -147t-92.5 -86.5t-137 -28.5
q-124 0 -192 67t-68 197v460h26v-458q0 -120 61.5 -180.5t173.5 -60.5q107 0 171.5 57.5t64.5 171.5v470h26v-462z" />
    <glyph glyph-name="uni01D6" unicode="&#x1d6;" horiz-adv-x="573" 
d="M416 796v-24h-255v24h255zM194 709q17 0 21 -9.5t4 -21.5q0 -13 -4 -22t-21 -9q-13 0 -18 9t-5 22q0 12 5 21.5t18 9.5zM379 709q17 0 21 -9.5t4 -21.5q0 -13 -4 -22t-21 -9q-13 0 -18 9t-5 22q0 12 5 21.5t18 9.5zM481 528v-528h-21l-4 111h-2q-11 -30 -35 -58
t-62.5 -45.5t-94.5 -17.5q-88 0 -134 49t-46 143v346h26v-342q0 -88 40 -129.5t114 -41.5q86 0 139.5 51.5t53.5 159.5v302h26z" />
    <glyph glyph-name="uni01D7" unicode="&#x1d7;" horiz-adv-x="712" 
d="M337 945q29 28 61 66t53 70h30v-7q-25 -34 -56.5 -69t-66.5 -66h-21v6zM263 833q-13 0 -18 9t-5 22q0 12 5 21.5t18 9.5q17 0 21 -9.5t4 -21.5q0 -13 -4 -22t-21 -9zM448 833q-13 0 -18 9t-5 22q0 12 5 21.5t18 9.5q17 0 21 -9.5t4 -21.5q0 -13 -4 -22t-21 -9zM618 252
q0 -89 -33.5 -147t-92.5 -86.5t-137 -28.5q-124 0 -192 67t-68 197v460h26v-458q0 -120 61.5 -180.5t173.5 -60.5q107 0 171.5 57.5t64.5 171.5v470h26v-462z" />
    <glyph glyph-name="uni01D8" unicode="&#x1d8;" horiz-adv-x="573" 
d="M268 759q29 28 61 66t53 70h30v-7q-25 -34 -56.5 -69t-66.5 -66h-21v6zM194 647q-13 0 -18 9t-5 22q0 12 5 21.5t18 9.5q17 0 21 -9.5t4 -21.5q0 -13 -4 -22t-21 -9zM379 647q-13 0 -18 9t-5 22q0 12 5 21.5t18 9.5q17 0 21 -9.5t4 -21.5q0 -13 -4 -22t-21 -9zM481 528
v-528h-21l-4 111h-2q-11 -30 -35 -58t-62.5 -45.5t-94.5 -17.5q-88 0 -134 49t-46 143v346h26v-342q0 -88 40 -129.5t114 -41.5q86 0 139.5 51.5t53.5 159.5v302h26z" />
    <glyph glyph-name="uni01D9" unicode="&#x1d9;" horiz-adv-x="712" 
d="M345 935q-11 19 -31 44t-42 49t-40 38v5h18q62 -50 107 -105q23 29 50.5 56t55.5 49h17v-5q-16 -14 -38 -38t-42 -49t-32 -44h-23zM263 833q-13 0 -18 9t-5 22q0 12 5 21.5t18 9.5q17 0 21 -9.5t4 -21.5q0 -13 -4 -22t-21 -9zM448 833q-13 0 -18 9t-5 22q0 12 5 21.5
t18 9.5q17 0 21 -9.5t4 -21.5q0 -13 -4 -22t-21 -9zM618 252q0 -89 -33.5 -147t-92.5 -86.5t-137 -28.5q-124 0 -192 67t-68 197v460h26v-458q0 -120 61.5 -180.5t173.5 -60.5q107 0 171.5 57.5t64.5 171.5v470h26v-462z" />
    <glyph glyph-name="uni01DA" unicode="&#x1da;" horiz-adv-x="573" 
d="M276 749q-11 19 -31 44t-42 49t-40 38v5h18q62 -50 107 -105q23 29 50.5 56t55.5 49h17v-5q-16 -14 -38 -38t-42 -49t-32 -44h-23zM194 647q-13 0 -18 9t-5 22q0 12 5 21.5t18 9.5q17 0 21 -9.5t4 -21.5q0 -13 -4 -22t-21 -9zM379 647q-13 0 -18 9t-5 22q0 12 5 21.5
t18 9.5q17 0 21 -9.5t4 -21.5q0 -13 -4 -22t-21 -9zM481 528v-528h-21l-4 111h-2q-11 -30 -35 -58t-62.5 -45.5t-94.5 -17.5q-88 0 -134 49t-46 143v346h26v-342q0 -88 40 -129.5t114 -41.5q86 0 139.5 51.5t53.5 159.5v302h26z" />
    <glyph glyph-name="uni01DB" unicode="&#x1db;" horiz-adv-x="712" 
d="M266 1081q21 -32 53 -70t61 -66v-6h-21q-35 31 -66 66t-57 69v7h30zM263 895q17 0 21 -9.5t4 -21.5q0 -13 -4 -22t-21 -9q-13 0 -18 9t-5 22q0 12 5 21.5t18 9.5zM448 895q17 0 21 -9.5t4 -21.5q0 -13 -4 -22t-21 -9q-13 0 -18 9t-5 22q0 12 5 21.5t18 9.5zM618 252
q0 -89 -33.5 -147t-92.5 -86.5t-137 -28.5q-124 0 -192 67t-68 197v460h26v-458q0 -120 61.5 -180.5t173.5 -60.5q107 0 171.5 57.5t64.5 171.5v470h26v-462z" />
    <glyph glyph-name="uni01DC" unicode="&#x1dc;" horiz-adv-x="573" 
d="M197 895q21 -32 53 -70t61 -66v-6h-21q-35 31 -66 66t-57 69v7h30zM194 709q17 0 21 -9.5t4 -21.5q0 -13 -4 -22t-21 -9q-13 0 -18 9t-5 22q0 12 5 21.5t18 9.5zM379 709q17 0 21 -9.5t4 -21.5q0 -13 -4 -22t-21 -9q-13 0 -18 9t-5 22q0 12 5 21.5t18 9.5zM481 528v-528
h-21l-4 111h-2q-11 -30 -35 -58t-62.5 -45.5t-94.5 -17.5q-88 0 -134 49t-46 143v346h26v-342q0 -88 40 -129.5t114 -41.5q86 0 139.5 51.5t53.5 159.5v302h26z" />
    <glyph glyph-name="uni01DD" unicode="&#x1dd;" horiz-adv-x="540" 
d="M244 538q83 0 135.5 -35t77 -95.5t24.5 -138.5q0 -74 -25 -138t-75.5 -102.5t-127.5 -38.5q-67 0 -109.5 33t-62.5 89t-20 125v25h393q2 121 -52.5 186t-157.5 65q-48 0 -82 -7t-81 -28v27q38 17 76.5 25t86.5 8zM88 237q-1 -99 40 -160.5t125 -61.5t137.5 56.5
t62.5 165.5h-365z" />
    <glyph glyph-name="uni01DE" unicode="&#x1de;" horiz-adv-x="577" 
d="M423 982v-24h-255v24h255zM201 895q17 0 21 -9.5t4 -21.5q0 -13 -4 -22t-21 -9q-13 0 -18 9t-5 22q0 12 5 21.5t18 9.5zM386 895q17 0 21 -9.5t4 -21.5q0 -13 -4 -22t-21 -9q-13 0 -18 9t-5 22q0 12 5 21.5t18 9.5zM549 0l-104 271h-310l-107 -271h-28l282 716h25
l270 -716h-28zM325 594q-6 17 -14 38.5t-18 49.5q-7 -22 -16 -45.5t-17 -43.5l-116 -297h291z" />
    <glyph glyph-name="uni01DF" unicode="&#x1df;" horiz-adv-x="511" 
d="M380 796v-24h-255v24h255zM158 709q17 0 21 -9.5t4 -21.5q0 -13 -4 -22t-21 -9q-13 0 -18 9t-5 22q0 12 5 21.5t18 9.5zM343 709q17 0 21 -9.5t4 -21.5q0 -13 -4 -22t-21 -9q-13 0 -18 9t-5 22q0 12 5 21.5t18 9.5zM264 537q82 0 123 -44.5t41 -142.5v-350h-22l-4 103h-2
q-21 -46 -66 -79.5t-126 -33.5q-79 0 -119.5 38t-40.5 101q0 79 66.5 118.5t184.5 46.5l103 6v43q0 90 -34 129.5t-104 39.5q-40 0 -77.5 -9t-80.5 -31l-9 26q40 18 81.5 28.5t85.5 10.5zM301 270q-102 -5 -163.5 -38t-61.5 -103q0 -53 34 -83.5t98 -30.5q100 0 146.5 57
t47.5 148v55z" />
    <glyph glyph-name="uni01E0" unicode="&#x1e0;" horiz-adv-x="577" 
d="M423 952v-24h-255v24h255zM294 854q18 0 22.5 -9.5t4.5 -21.5q0 -13 -4.5 -22t-22.5 -9q-15 0 -20 9t-5 22q0 12 5 21.5t20 9.5zM549 0l-104 271h-310l-107 -271h-28l282 716h25l270 -716h-28zM325 594q-6 17 -14 38.5t-18 49.5q-7 -22 -16 -45.5t-17 -43.5l-116 -297
h291z" />
    <glyph glyph-name="uni01E1" unicode="&#x1e1;" horiz-adv-x="511" 
d="M380 796v-24h-255v24h255zM251 698q18 0 22.5 -9.5t4.5 -21.5q0 -13 -4.5 -22t-22.5 -9q-15 0 -20 9t-5 22q0 12 5 21.5t20 9.5zM264 537q82 0 123 -44.5t41 -142.5v-350h-22l-4 103h-2q-21 -46 -66 -79.5t-126 -33.5q-79 0 -119.5 38t-40.5 101q0 79 66.5 118.5
t184.5 46.5l103 6v43q0 90 -34 129.5t-104 39.5q-40 0 -77.5 -9t-80.5 -31l-9 26q40 18 81.5 28.5t85.5 10.5zM301 270q-102 -5 -163.5 -38t-61.5 -103q0 -53 34 -83.5t98 -30.5q100 0 146.5 57t47.5 148v55z" />
    <glyph glyph-name="uni01E2" unicode="&#x1e2;" horiz-adv-x="763" 
d="M750 0h-385v270h-221l-114 -270h-31l307 714h444v-25h-359v-300h339v-25h-339v-339h359v-25zM156 295h209v394h-42zM510 824v-24h-255v24h255z" />
    <glyph glyph-name="uni01E3" unicode="&#x1e3;" horiz-adv-x="850" 
d="M604 538q64 0 106 -33t62 -88.5t17 -125.5v-25h-371q-1 -121 51.5 -186t143.5 -65q43 0 76.5 7t79.5 28v-27q-73 -33 -156 -33q-84 0 -135 44t-70 111q-18 -70 -66 -112.5t-132 -42.5q-81 0 -121.5 38t-40.5 101q0 79 66.5 118.5t181.5 46.5l96 6v43q0 90 -33 129.5
t-98 39.5q-37 0 -74.5 -9t-80.5 -31l-9 26q40 18 81 28.5t83 10.5q70 0 108 -36.5t45 -116.5q22 68 69.5 111t120.5 43zM604 513q-73 0 -124.5 -56.5t-60.5 -165.5h343q1 99 -39 160.5t-119 61.5zM298 270q-100 -5 -161 -38t-61 -103q0 -53 34.5 -83.5t99.5 -30.5
q93 0 137 57t45 148v55zM550 638v-24h-255v24h255z" />
    <glyph glyph-name="uni01E4" unicode="&#x1e4;" horiz-adv-x="720" 
d="M417 -10q-173 0 -263.5 95t-90.5 270q0 106 43.5 189.5t124.5 132.5t193 49q57 0 108.5 -10.5t98.5 -33.5l-12 -25q-51 25 -99.5 34.5t-96.5 9.5q-103 0 -178 -45t-115 -123t-40 -177q0 -121 40.5 -196t114.5 -110t174 -35q58 0 106.5 9.5t87.5 25.5v109h-215v25h215v141
h-246v25h272v-166h63v-25h-63v-123q-48 -23 -105.5 -34.5t-116.5 -11.5z" />
    <glyph glyph-name="uni01E5" unicode="&#x1e5;" horiz-adv-x="583" 
d="M290 538q73 0 112.5 -28.5t60.5 -72.5h2l5 91h22v-601h81v-25h-83q-8 -67 -61.5 -104.5t-155.5 -37.5q-61 0 -105.5 11t-80.5 26v30q36 -17 83 -29.5t103 -12.5q88 0 134.5 29.5t56.5 87.5h-185v25h187v100q0 22 0.5 41.5t1.5 48.5h-2q-18 -62 -67 -94.5t-123 -32.5
q-102 0 -159.5 67.5t-57.5 198.5t58 206.5t173 75.5zM290 513q-105 0 -154.5 -68t-49.5 -189q0 -118 49.5 -179.5t140.5 -61.5q59 0 96 20.5t57.5 54t28.5 74.5t8 82v48q0 63 -16 112.5t-54 78t-106 28.5z" />
    <glyph glyph-name="Gcaron" unicode="&#x1e6;" horiz-adv-x="720" 
d="M367 350h272v-314q-48 -23 -105.5 -34.5t-116.5 -11.5q-173 0 -263.5 95t-90.5 270q0 106 43.5 189.5t124.5 132.5t193 49q57 0 108.5 -10.5t98.5 -33.5l-12 -25q-51 25 -99.5 34.5t-96.5 9.5q-103 0 -178 -45t-115 -123t-40 -177q0 -121 40.5 -196t114.5 -110t174 -35
q58 0 106.5 9.5t87.5 25.5v275h-246v25zM384 792q-12 21 -32 48.5t-41.5 55t-40.5 47.5v6h21q28 -28 55.5 -62t48.5 -63q21 29 49.5 63t56.5 62h21v-6q-18 -20 -40.5 -47.5t-43 -55t-32.5 -48.5h-22z" />
    <glyph glyph-name="gcaron" unicode="&#x1e7;" horiz-adv-x="583" 
d="M290 538q73 0 112.5 -28.5t60.5 -72.5h2l5 91h22v-553q0 -63 -21.5 -111.5t-69.5 -76t-128 -27.5q-61 0 -105.5 11t-80.5 26v30q36 -17 83 -29.5t103 -12.5q106 0 149.5 52t43.5 138v42q0 29 0.5 50t1.5 50h-2q-18 -62 -67 -94.5t-123 -32.5q-102 0 -159.5 67.5
t-57.5 198.5t58 206.5t173 75.5zM290 513q-105 0 -154.5 -68t-49.5 -189q0 -118 49.5 -179.5t140.5 -61.5q59 0 96 20.5t57.5 54t28.5 74.5t8 82v48q0 63 -16 112.5t-54 78t-106 28.5zM269 606q-12 21 -32 48.5t-41.5 55t-40.5 47.5v6h21q28 -28 55.5 -62t48.5 -63
q21 29 49.5 63t56.5 62h21v-6q-18 -20 -40.5 -47.5t-43 -55t-32.5 -48.5h-22z" />
    <glyph glyph-name="uni01E8" unicode="&#x1e8;" horiz-adv-x="558" 
d="M558 0h-34l-290 398l-105 -105v-293h-26v714h26v-390q11 13 24 26l26 26l335 338h38l-298 -297zM280 792q-12 21 -32 48.5t-41.5 55t-40.5 47.5v6h21q28 -28 55.5 -62t48.5 -63q21 29 49.5 63t56.5 62h21v-6q-18 -20 -40.5 -47.5t-43 -55t-32.5 -48.5h-22z" />
    <glyph glyph-name="uni01E9" unicode="&#x1e9;" horiz-adv-x="454" 
d="M116 385v-91t-1 -90q17 19 29 32.5l28 31.5l233 260h34l-205 -227l225 -301h-31l-212 283l-100 -111v-172h-26v760h26v-375zM90 838q-12 21 -32 48.5t-41.5 55t-40.5 47.5v6h21q28 -28 55.5 -62t48.5 -63q21 29 49.5 63t56.5 62h21v-6q-18 -20 -40.5 -47.5t-43 -55
t-32.5 -48.5h-22z" />
    <glyph glyph-name="uni01EA" unicode="&#x1ea;" horiz-adv-x="754" 
d="M690 358q0 -108 -34.5 -191t-104 -130t-175.5 -47q-104 0 -173.5 47.5t-104.5 130.5t-35 191t37 190.5t108.5 129t173.5 46.5q148 0 228 -96.5t80 -270.5zM90 359q0 -100 31 -177.5t95 -122t161 -44.5q98 0 161.5 43.5t94 121t30.5 178.5q0 163 -73 252.5t-208 89.5
q-98 0 -163 -44t-97 -121t-32 -176zM329 -131q0 -61 58 -61q29 0 48 7v-24q-8 -3 -21 -5.5t-29 -2.5q-34 0 -58 20.5t-24 61.5q0 36 24 71.5t76 74.5l18 -11q-34 -27 -63 -60t-29 -71z" />
    <glyph glyph-name="uni01EB" unicode="&#x1eb;" horiz-adv-x="575" 
d="M515 264q0 -77 -24.5 -139.5t-75 -98.5t-129.5 -36q-76 0 -126.5 36t-75.5 98t-25 140q0 126 61.5 200t171.5 74q80 0 129 -36.5t71.5 -98.5t22.5 -139zM86 264q0 -73 22 -129.5t66.5 -88t111.5 -31.5q70 0 114.5 32t66 88.5t21.5 128.5q0 69 -19.5 125.5t-62.5 90
t-114 33.5q-99 0 -152.5 -66t-53.5 -183zM260 -131q0 -61 58 -61q29 0 48 7v-24q-8 -3 -21 -5.5t-29 -2.5q-34 0 -58 20.5t-24 61.5q0 36 24 71.5t76 74.5l18 -11q-34 -27 -63 -60t-29 -71z" />
    <glyph glyph-name="uni01EC" unicode="&#x1ec;" horiz-adv-x="754" 
d="M690 358q0 -108 -34.5 -191t-104 -130t-175.5 -47q-104 0 -173.5 47.5t-104.5 130.5t-35 191t37 190.5t108.5 129t173.5 46.5q148 0 228 -96.5t80 -270.5zM90 359q0 -100 31 -177.5t95 -122t161 -44.5q98 0 161.5 43.5t94 121t30.5 178.5q0 163 -73 252.5t-208 89.5
q-98 0 -163 -44t-97 -121t-32 -176zM503 824v-24h-255v24h255zM353 -131q0 -61 58 -61q29 0 48 7v-24q-8 -3 -21 -5.5t-29 -2.5q-34 0 -58 20.5t-24 61.5q0 36 24 71.5t76 74.5l18 -11q-34 -27 -63 -60t-29 -71z" />
    <glyph glyph-name="uni01ED" unicode="&#x1ed;" horiz-adv-x="575" 
d="M515 264q0 -77 -24.5 -139.5t-75 -98.5t-129.5 -36q-76 0 -126.5 36t-75.5 98t-25 140q0 126 61.5 200t171.5 74q80 0 129 -36.5t71.5 -98.5t22.5 -139zM86 264q0 -73 22 -129.5t66.5 -88t111.5 -31.5q70 0 114.5 32t66 88.5t21.5 128.5q0 69 -19.5 125.5t-62.5 90
t-114 33.5q-99 0 -152.5 -66t-53.5 -183zM414 638v-24h-255v24h255zM260 -131q0 -61 58 -61q29 0 48 7v-24q-8 -3 -21 -5.5t-29 -2.5q-34 0 -58 20.5t-24 61.5q0 36 24 71.5t76 74.5l18 -11q-34 -27 -63 -60t-29 -71z" />
    <glyph glyph-name="uni01EE" unicode="&#x1ee;" horiz-adv-x="578" 
d="M472 714v-21l-257 -296q137 0 203.5 -47t66.5 -151q0 -96 -63 -152.5t-180 -56.5q-61 0 -112 12t-89 32v30q39 -22 92.5 -35.5t108.5 -13.5q104 0 160 48.5t56 135.5q0 173 -224 173h-51v25l253 292h-382v25h418zM262 792q-12 21 -32 48.5t-41.5 55t-40.5 47.5v6h21
q28 -28 55.5 -62t48.5 -63q21 29 49.5 63t56.5 62h21v-6q-18 -20 -40.5 -47.5t-43 -55t-32.5 -48.5h-22z" />
    <glyph glyph-name="uni01EF" unicode="&#x1ef;" horiz-adv-x="437" 
d="M391 528v-20l-272 -313q155 0 221 -54.5t66 -154.5q0 -101 -59.5 -163.5t-166.5 -62.5q-50 0 -89.5 8.5t-74.5 23.5v30q36 -17 77 -27t87 -10q95 0 147 55t52 146q0 94 -61.5 139t-195.5 45h-38v22l266 311h-317v25h358zM191 606q-12 21 -32 48.5t-41.5 55t-40.5 47.5v6
h21q28 -28 55.5 -62t48.5 -63q21 29 49.5 63t56.5 62h21v-6q-18 -20 -40.5 -47.5t-43 -55t-32.5 -48.5h-22z" />
    <glyph glyph-name="uni01F0" unicode="&#x1f0;" horiz-adv-x="207" 
d="M11 -240q-19 0 -34 3t-27 7v26q15 -7 30.5 -9t30.5 -2q40 0 59.5 26.5t19.5 72.5v644h26v-648q0 -61 -31 -90.5t-74 -29.5zM90 606q-12 21 -32 48.5t-41.5 55t-40.5 47.5v6h21q28 -28 55.5 -62t48.5 -63q21 29 49.5 63t56.5 62h21v-6q-18 -20 -40.5 -47.5t-43 -55
t-32.5 -48.5h-22z" />
    <glyph glyph-name="uni01F1" unicode="&#x1f1;" horiz-adv-x="1260" 
d="M628 364q0 -179 -91.5 -271.5t-279.5 -92.5h-154v714h177q177 0 262.5 -90t85.5 -260zM601 363q0 159 -78.5 242.5t-252.5 83.5h-141v-664h131q341 0 341 338zM1220 0h-502v18l453 671h-425v25h462v-18l-453 -671h465v-25z" />
    <glyph glyph-name="uni01F2" unicode="&#x1f2;" horiz-adv-x="1148" 
d="M628 364q0 -179 -91.5 -271.5t-279.5 -92.5h-154v714h177q177 0 262.5 -90t85.5 -260zM601 363q0 159 -78.5 242.5t-252.5 83.5h-141v-664h131q341 0 341 338zM1104 0h-371v17l336 486h-309v25h347v-15l-338 -488h335v-25z" />
    <glyph glyph-name="uni01F3" unicode="&#x1f3;" horiz-adv-x="1039" 
d="M283 -10q-114 0 -169 68t-55 196q0 137 60 210.5t172 73.5q72 0 116.5 -35.5t60.5 -88.5h2q-1 34 -1.5 66t-0.5 63v217h26v-760h-22l-2 113h-2q-18 -50 -62 -86.5t-123 -36.5zM283 15q100 0 142.5 65.5t42.5 182.5v3q0 120 -44 183.5t-133 63.5q-99 0 -152 -64.5
t-53 -194.5q0 -120 48.5 -179.5t148.5 -59.5zM995 0h-371v17l336 486h-309v25h347v-15l-338 -488h335v-25z" />
    <glyph glyph-name="uni01F4" unicode="&#x1f4;" horiz-adv-x="720" 
d="M367 350h272v-314q-48 -23 -105.5 -34.5t-116.5 -11.5q-173 0 -263.5 95t-90.5 270q0 106 43.5 189.5t124.5 132.5t193 49q57 0 108.5 -10.5t98.5 -33.5l-12 -25q-51 25 -99.5 34.5t-96.5 9.5q-103 0 -178 -45t-115 -123t-40 -177q0 -121 40.5 -196t114.5 -110t174 -35
q58 0 106.5 9.5t87.5 25.5v275h-246v25zM535 945q-26 -34 -67 -77t-81 -76h-21v6q23 20 49.5 48t51 56.5t38.5 49.5h30v-7z" />
    <glyph glyph-name="uni01F5" unicode="&#x1f5;" horiz-adv-x="583" 
d="M290 538q73 0 112.5 -28.5t60.5 -72.5h2l5 91h22v-553q0 -63 -21.5 -111.5t-69.5 -76t-128 -27.5q-61 0 -105.5 11t-80.5 26v30q36 -17 83 -29.5t103 -12.5q106 0 149.5 52t43.5 138v42q0 29 0.5 50t1.5 50h-2q-18 -62 -67 -94.5t-123 -32.5q-102 0 -159.5 67.5
t-57.5 198.5t58 206.5t173 75.5zM290 513q-105 0 -154.5 -68t-49.5 -189q0 -118 49.5 -179.5t140.5 -61.5q59 0 96 20.5t57.5 54t28.5 74.5t8 82v48q0 63 -16 112.5t-54 78t-106 28.5zM417 759q-26 -34 -67 -77t-81 -76h-21v6q23 20 49.5 48t51 56.5t38.5 49.5h30v-7z" />
    <glyph glyph-name="uni01F6" unicode="&#x1f6;" horiz-adv-x="1000" 
d="M103 0v714h26v-327h410v327h26v-522q0 -68 21 -107t57 -54.5t82 -15.5q45 0 80 16.5t54.5 55t19.5 105.5v336h23v-340q0 -73 -24 -116t-64 -62.5t-89 -19.5q-54 0 -96 19.5t-66 63t-24 115.5v174h-410v-362h-26z" />
    <glyph glyph-name="uni01F7" unicode="&#x1f7;" horiz-adv-x="597" 
d="M342 725q54 0 99.5 -24.5t73.5 -80.5t28 -151q0 -100 -35 -178.5t-94 -136.5t-133.5 -96.5t-154.5 -59.5v-238h-23v955h21l3 -140h2q10 36 35.5 70.5t69.5 57t108 22.5zM338 700q-94 0 -153 -65t-59 -191v-422q77 22 147.5 59.5t125 92t86 127.5t31.5 166q0 90 -25 140.5
t-65.5 71.5t-87.5 21z" />
    <glyph glyph-name="uni01F8" unicode="&#x1f8;" horiz-adv-x="698" 
d="M594 0h-19l-445 655h-2q1 -43 1 -78v-75v-502h-26v714h20l444 -653h2q-1 38 -1 77v73v503h26v-714zM295 952q15 -21 39 -49.5t51 -56.5t49 -48v-6h-21q-40 33 -81 76t-67 77v7h30z" />
    <glyph glyph-name="uni01F9" unicode="&#x1f9;" horiz-adv-x="573" 
d="M309 538q86 0 133 -47t47 -145v-346h-26v345q0 88 -40.5 128t-113.5 40q-86 0 -139.5 -51.5t-53.5 -159.5v-302h-26v528h21l4 -111h2q12 31 35.5 58.5t62 45t94.5 17.5zM233 766q15 -21 39 -49.5t51 -56.5t49 -48v-6h-21q-40 33 -81 76t-67 77v7h30z" />
    <glyph glyph-name="Aringacute" unicode="&#x1fa;" horiz-adv-x="576" 
d="M279 828q32 30 64 66.5t53 70.5h30v-7q-25 -35 -56.5 -69t-69.5 -67h-21v6zM278 578q-39 5 -64 32t-25 74q0 44 29 72.5t75 28.5q47 0 74.5 -28t27.5 -74q0 -45 -24 -71.5t-64 -34.5l275 -577h-30l-109 233h-307l-114 -233h-30zM292 599q37 0 59.5 22t22.5 62
q0 37 -22 59t-60 22q-37 0 -59.5 -22t-22.5 -59q0 -40 23.5 -62t58.5 -22zM148 258h282l-112 240q-6 13 -12.5 27.5t-13.5 30.5q-7 -16 -13 -29.5t-13 -27.5z" />
    <glyph glyph-name="aringacute" unicode="&#x1fb;" horiz-adv-x="511" 
d="M373 943q-25 -34 -59.5 -69.5t-69.5 -67.5h-21v6q29 29 64 67t56 71h30v-7zM266 775q41 0 70.5 -29.5t29.5 -70.5q0 -44 -29.5 -72t-70.5 -28q-40 0 -70.5 27.5t-30.5 72.5q0 43 30 71.5t71 28.5zM266 751q-33 0 -55 -22t-22 -54q0 -31 21.5 -53.5t55.5 -22.5t55 22.5
t21 53.5q0 32 -22.5 54t-53.5 22zM264 537q82 0 123 -44.5t41 -142.5v-350h-22l-4 103h-2q-21 -46 -66 -79.5t-126 -33.5q-79 0 -119.5 38t-40.5 101q0 79 66.5 118.5t184.5 46.5l103 6v43q0 90 -34 129.5t-104 39.5q-40 0 -77.5 -9t-80.5 -31l-9 26q40 18 81.5 28.5
t85.5 10.5zM301 270q-102 -5 -163.5 -38t-61.5 -103q0 -53 34 -83.5t98 -30.5q100 0 146.5 57t47.5 148v55z" />
    <glyph glyph-name="AEacute" unicode="&#x1fc;" horiz-adv-x="763" 
d="M750 0h-385v270h-221l-114 -270h-31l307 714h444v-25h-359v-300h339v-25h-339v-339h359v-25zM156 295h209v394h-42zM507 945q-26 -34 -67 -77t-81 -76h-21v6q23 20 49.5 48t51 56.5t38.5 49.5h30v-7z" />
    <glyph glyph-name="aeacute" unicode="&#x1fd;" horiz-adv-x="850" 
d="M604 538q64 0 106 -33t62 -88.5t17 -125.5v-25h-371q-1 -121 51.5 -186t143.5 -65q43 0 76.5 7t79.5 28v-27q-73 -33 -156 -33q-84 0 -135 44t-70 111q-18 -70 -66 -112.5t-132 -42.5q-81 0 -121.5 38t-40.5 101q0 79 66.5 118.5t181.5 46.5l96 6v43q0 90 -33 129.5
t-98 39.5q-37 0 -74.5 -9t-80.5 -31l-9 26q40 18 81 28.5t83 10.5q70 0 108 -36.5t45 -116.5q22 68 69.5 111t120.5 43zM604 513q-73 0 -124.5 -56.5t-60.5 -165.5h343q1 99 -39 160.5t-119 61.5zM298 270q-100 -5 -161 -38t-61 -103q0 -53 34.5 -83.5t99.5 -30.5
q93 0 137 57t45 148v55zM550 759q-26 -34 -67 -77t-81 -76h-21v6q23 20 49.5 48t51 56.5t38.5 49.5h30v-7z" />
    <glyph glyph-name="Oslashacute" unicode="&#x1fe;" horiz-adv-x="754" 
d="M690 358q0 -108 -34.5 -191t-104 -130t-175.5 -47q-64 0 -115.5 19t-89.5 54l-66 -89l-20 15l68 92q-44 50 -67 121t-23 157q0 108 37 190.5t108.5 129t173.5 46.5q120 0 197 -66l60 81l20 -15l-61 -83q44 -47 68 -119t24 -165zM90 359q0 -79 19.5 -144.5t58.5 -112.5
l396 536q-34 30 -80 46t-102 16q-98 0 -163 -44t-97 -121t-32 -176zM663 358q0 173 -81 262l-396 -536q35 -33 82.5 -51t108.5 -18q98 0 161.5 43.5t94 121t30.5 178.5zM502 945q-26 -34 -67 -77t-81 -76h-21v6q23 20 49.5 48t51 56.5t38.5 49.5h30v-7z" />
    <glyph glyph-name="oslashacute" unicode="&#x1ff;" horiz-adv-x="575" 
d="M515 264q0 -77 -24.5 -139.5t-75 -98.5t-129.5 -36q-52 0 -91 17t-67 47l-66 -81l-19 16l69 85q-53 74 -53 190q0 126 61.5 200t171.5 74q49 0 86 -14.5t63 -40.5l58 72l19 -16l-60 -74q29 -37 43 -89t14 -112zM86 264q0 -104 42 -169l296 368q-23 23 -55.5 36.5
t-76.5 13.5q-99 0 -152.5 -66t-53.5 -183zM488 264q0 53 -11 99t-36 80l-297 -369q25 -28 60.5 -43.5t81.5 -15.5q70 0 114.5 32t66 88.5t21.5 128.5zM413 759q-26 -34 -67 -77t-81 -76h-21v6q23 20 49.5 48t51 56.5t38.5 49.5h30v-7z" />
    <glyph glyph-name="uni0200" unicode="&#x200;" horiz-adv-x="577" 
d="M549 0l-104 271h-310l-107 -271h-28l282 716h25l270 -716h-28zM325 594q-6 17 -14 38.5t-18 49.5q-7 -22 -16 -45.5t-17 -43.5l-116 -297h291zM291 952q12 -22 30.5 -51t39.5 -56t39 -47v-6h-21q-31 33 -63.5 75.5t-54.5 77.5v7h30zM131 952q12 -22 30.5 -51t39.5 -56
t39 -47v-6h-21q-31 33 -63.5 75.5t-54.5 77.5v7h30z" />
    <glyph glyph-name="uni0201" unicode="&#x201;" horiz-adv-x="511" 
d="M264 537q82 0 123 -44.5t41 -142.5v-350h-22l-4 103h-2q-21 -46 -66 -79.5t-126 -33.5q-79 0 -119.5 38t-40.5 101q0 79 66.5 118.5t184.5 46.5l103 6v43q0 90 -34 129.5t-104 39.5q-40 0 -77.5 -9t-80.5 -31l-9 26q40 18 81.5 28.5t85.5 10.5zM301 270
q-102 -5 -163.5 -38t-61.5 -103q0 -53 34 -83.5t98 -30.5q100 0 146.5 57t47.5 148v55zM248 766q12 -22 30.5 -51t39.5 -56t39 -47v-6h-21q-31 33 -63.5 75.5t-54.5 77.5v7h30zM88 766q12 -22 30.5 -51t39.5 -56t39 -47v-6h-21q-31 33 -63.5 75.5t-54.5 77.5v7h30z" />
    <glyph glyph-name="uni0202" unicode="&#x202;" horiz-adv-x="577" 
d="M549 0l-104 271h-310l-107 -271h-28l282 716h25l270 -716h-28zM325 594q-6 17 -14 38.5t-18 49.5q-7 -22 -16 -45.5t-17 -43.5l-116 -297h291zM296 904q54 0 86 -28.5t36 -83.5h-25q-4 40 -27.5 64t-69.5 24q-49 0 -71 -24t-27 -64h-25q14 112 123 112z" />
    <glyph glyph-name="uni0203" unicode="&#x203;" horiz-adv-x="511" 
d="M264 537q82 0 123 -44.5t41 -142.5v-350h-22l-4 103h-2q-21 -46 -66 -79.5t-126 -33.5q-79 0 -119.5 38t-40.5 101q0 79 66.5 118.5t184.5 46.5l103 6v43q0 90 -34 129.5t-104 39.5q-40 0 -77.5 -9t-80.5 -31l-9 26q40 18 81.5 28.5t85.5 10.5zM301 270
q-102 -5 -163.5 -38t-61.5 -103q0 -53 34 -83.5t98 -30.5q100 0 146.5 57t47.5 148v55zM253 718q54 0 86 -28.5t36 -83.5h-25q-4 40 -27.5 64t-69.5 24q-49 0 -71 -24t-27 -64h-25q14 112 123 112z" />
    <glyph glyph-name="uni0204" unicode="&#x204;" horiz-adv-x="550" 
d="M488 0h-385v714h385v-25h-359v-300h339v-25h-339v-339h359v-25zM307 952q12 -22 30.5 -51t39.5 -56t39 -47v-6h-21q-31 33 -63.5 75.5t-54.5 77.5v7h30zM147 952q12 -22 30.5 -51t39.5 -56t39 -47v-6h-21q-31 33 -63.5 75.5t-54.5 77.5v7h30z" />
    <glyph glyph-name="uni0205" unicode="&#x205;" horiz-adv-x="540" 
d="M287 538q68 0 110 -33t62 -88.5t20 -125.5v-25h-393q-1 -121 53 -186t157 -65q48 0 82.5 7t80.5 28v-27q-38 -17 -76.5 -25t-86.5 -8q-83 0 -135.5 35t-77 96t-24.5 138q0 75 25 138.5t75.5 102t127.5 38.5zM287 513q-84 0 -137.5 -56.5t-62.5 -165.5h365q1 99 -40 160.5
t-125 61.5zM277 766q12 -22 30.5 -51t39.5 -56t39 -47v-6h-21q-31 33 -63.5 75.5t-54.5 77.5v7h30zM117 766q12 -22 30.5 -51t39.5 -56t39 -47v-6h-21q-31 33 -63.5 75.5t-54.5 77.5v7h30z" />
    <glyph glyph-name="uni0206" unicode="&#x206;" horiz-adv-x="550" 
d="M488 0h-385v714h385v-25h-359v-300h339v-25h-339v-339h359v-25zM312 904q54 0 86 -28.5t36 -83.5h-25q-4 40 -27.5 64t-69.5 24q-49 0 -71 -24t-27 -64h-25q14 112 123 112z" />
    <glyph glyph-name="uni0207" unicode="&#x207;" horiz-adv-x="540" 
d="M287 538q68 0 110 -33t62 -88.5t20 -125.5v-25h-393q-1 -121 53 -186t157 -65q48 0 82.5 7t80.5 28v-27q-38 -17 -76.5 -25t-86.5 -8q-83 0 -135.5 35t-77 96t-24.5 138q0 75 25 138.5t75.5 102t127.5 38.5zM287 513q-84 0 -137.5 -56.5t-62.5 -165.5h365q1 99 -40 160.5
t-125 61.5zM282 718q54 0 86 -28.5t36 -83.5h-25q-4 40 -27.5 64t-69.5 24q-49 0 -71 -24t-27 -64h-25q14 112 123 112z" />
    <glyph glyph-name="uni0208" unicode="&#x208;" horiz-adv-x="283" 
d="M223 0h-162v20l68 3v667l-68 4v20h162v-20l-68 -4v-667l68 -3v-20zM138 952q12 -22 30.5 -51t39.5 -56t39 -47v-6h-21q-31 33 -63.5 75.5t-54.5 77.5v7h30zM-22 952q12 -22 30.5 -51t39.5 -56t39 -47v-6h-21q-31 33 -63.5 75.5t-54.5 77.5v7h30z" />
    <glyph glyph-name="uni0209" unicode="&#x209;" horiz-adv-x="207" 
d="M116 0h-26v528h26v-528zM100 766q12 -22 30.5 -51t39.5 -56t39 -47v-6h-21q-31 33 -63.5 75.5t-54.5 77.5v7h30zM-60 766q12 -22 30.5 -51t39.5 -56t39 -47v-6h-21q-31 33 -63.5 75.5t-54.5 77.5v7h30z" />
    <glyph glyph-name="uni020A" unicode="&#x20a;" horiz-adv-x="283" 
d="M223 0h-162v20l68 3v667l-68 4v20h162v-20l-68 -4v-667l68 -3v-20zM143 904q54 0 86 -28.5t36 -83.5h-25q-4 40 -27.5 64t-69.5 24q-49 0 -71 -24t-27 -64h-25q14 112 123 112z" />
    <glyph glyph-name="uni020B" unicode="&#x20b;" horiz-adv-x="207" 
d="M116 0h-26v528h26v-528zM105 718q54 0 86 -28.5t36 -83.5h-25q-4 40 -27.5 64t-69.5 24q-49 0 -71 -24t-27 -64h-25q14 112 123 112z" />
    <glyph glyph-name="uni020C" unicode="&#x20c;" horiz-adv-x="754" 
d="M690 358q0 -108 -34.5 -191t-104 -130t-175.5 -47q-104 0 -173.5 47.5t-104.5 130.5t-35 191t37 190.5t108.5 129t173.5 46.5q148 0 228 -96.5t80 -270.5zM90 359q0 -100 31 -177.5t95 -122t161 -44.5q98 0 161.5 43.5t94 121t30.5 178.5q0 163 -73 252.5t-208 89.5
q-98 0 -163 -44t-97 -121t-32 -176zM374 952q12 -22 30.5 -51t39.5 -56t39 -47v-6h-21q-31 33 -63.5 75.5t-54.5 77.5v7h30zM214 952q12 -22 30.5 -51t39.5 -56t39 -47v-6h-21q-31 33 -63.5 75.5t-54.5 77.5v7h30z" />
    <glyph glyph-name="uni020D" unicode="&#x20d;" horiz-adv-x="575" 
d="M515 264q0 -77 -24.5 -139.5t-75 -98.5t-129.5 -36q-76 0 -126.5 36t-75.5 98t-25 140q0 126 61.5 200t171.5 74q80 0 129 -36.5t71.5 -98.5t22.5 -139zM86 264q0 -73 22 -129.5t66.5 -88t111.5 -31.5q70 0 114.5 32t66 88.5t21.5 128.5q0 69 -19.5 125.5t-62.5 90
t-114 33.5q-99 0 -152.5 -66t-53.5 -183zM284 766q12 -22 30.5 -51t39.5 -56t39 -47v-6h-21q-31 33 -63.5 75.5t-54.5 77.5v7h30zM124 766q12 -22 30.5 -51t39.5 -56t39 -47v-6h-21q-31 33 -63.5 75.5t-54.5 77.5v7h30z" />
    <glyph glyph-name="uni020E" unicode="&#x20e;" horiz-adv-x="754" 
d="M690 358q0 -108 -34.5 -191t-104 -130t-175.5 -47q-104 0 -173.5 47.5t-104.5 130.5t-35 191t37 190.5t108.5 129t173.5 46.5q148 0 228 -96.5t80 -270.5zM90 359q0 -100 31 -177.5t95 -122t161 -44.5q98 0 161.5 43.5t94 121t30.5 178.5q0 163 -73 252.5t-208 89.5
q-98 0 -163 -44t-97 -121t-32 -176zM379 904q54 0 86 -28.5t36 -83.5h-25q-4 40 -27.5 64t-69.5 24q-49 0 -71 -24t-27 -64h-25q14 112 123 112z" />
    <glyph glyph-name="uni020F" unicode="&#x20f;" horiz-adv-x="575" 
d="M515 264q0 -77 -24.5 -139.5t-75 -98.5t-129.5 -36q-76 0 -126.5 36t-75.5 98t-25 140q0 126 61.5 200t171.5 74q80 0 129 -36.5t71.5 -98.5t22.5 -139zM86 264q0 -73 22 -129.5t66.5 -88t111.5 -31.5q70 0 114.5 32t66 88.5t21.5 128.5q0 69 -19.5 125.5t-62.5 90
t-114 33.5q-99 0 -152.5 -66t-53.5 -183zM289 718q54 0 86 -28.5t36 -83.5h-25q-4 40 -27.5 64t-69.5 24q-49 0 -71 -24t-27 -64h-25q14 112 123 112z" />
    <glyph glyph-name="uni0210" unicode="&#x210;" horiz-adv-x="577" 
d="M262 714q83 0 139.5 -16.5t85.5 -57.5t29 -115q0 -79 -42.5 -128.5t-118.5 -69.5l196 -327h-33l-191 320h-198v-320h-26v714h159zM257 689h-128v-344h163q87 0 142 47t55 132q0 64 -25.5 100t-77 50.5t-129.5 14.5zM305 952q12 -22 30.5 -51t39.5 -56t39 -47v-6h-21
q-31 33 -63.5 75.5t-54.5 77.5v7h30zM145 952q12 -22 30.5 -51t39.5 -56t39 -47v-6h-21q-31 33 -63.5 75.5t-54.5 77.5v7h30z" />
    <glyph glyph-name="uni0211" unicode="&#x211;" horiz-adv-x="375" 
d="M278 536q24 0 43.5 -3t37.5 -8l-6 -24q-19 5 -35.5 7.5t-39.5 2.5q-83 0 -122 -58t-39 -156v-297h-26v528h24l2 -101h2q14 46 54.5 77.5t104.5 31.5zM213 766q12 -22 30.5 -51t39.5 -56t39 -47v-6h-21q-31 33 -63.5 75.5t-54.5 77.5v7h30zM53 766q12 -22 30.5 -51
t39.5 -56t39 -47v-6h-21q-31 33 -63.5 75.5t-54.5 77.5v7h30z" />
    <glyph glyph-name="uni0212" unicode="&#x212;" horiz-adv-x="577" 
d="M262 714q83 0 139.5 -16.5t85.5 -57.5t29 -115q0 -79 -42.5 -128.5t-118.5 -69.5l196 -327h-33l-191 320h-198v-320h-26v714h159zM257 689h-128v-344h163q87 0 142 47t55 132q0 64 -25.5 100t-77 50.5t-129.5 14.5zM310 904q54 0 86 -28.5t36 -83.5h-25q-4 40 -27.5 64
t-69.5 24q-49 0 -71 -24t-27 -64h-25q14 112 123 112z" />
    <glyph glyph-name="uni0213" unicode="&#x213;" horiz-adv-x="375" 
d="M278 536q24 0 43.5 -3t37.5 -8l-6 -24q-19 5 -35.5 7.5t-39.5 2.5q-83 0 -122 -58t-39 -156v-297h-26v528h24l2 -101h2q14 46 54.5 77.5t104.5 31.5zM218 718q54 0 86 -28.5t36 -83.5h-25q-4 40 -27.5 64t-69.5 24q-49 0 -71 -24t-27 -64h-25q14 112 123 112z" />
    <glyph glyph-name="uni0214" unicode="&#x214;" horiz-adv-x="712" 
d="M618 252q0 -89 -33.5 -147t-92.5 -86.5t-137 -28.5q-124 0 -192 67t-68 197v460h26v-458q0 -120 61.5 -180.5t173.5 -60.5q107 0 171.5 57.5t64.5 171.5v470h26v-462zM353 952q12 -22 30.5 -51t39.5 -56t39 -47v-6h-21q-31 33 -63.5 75.5t-54.5 77.5v7h30zM193 952
q12 -22 30.5 -51t39.5 -56t39 -47v-6h-21q-31 33 -63.5 75.5t-54.5 77.5v7h30z" />
    <glyph glyph-name="uni0215" unicode="&#x215;" horiz-adv-x="573" 
d="M481 528v-528h-21l-4 111h-2q-11 -30 -35 -58t-62.5 -45.5t-94.5 -17.5q-88 0 -134 49t-46 143v346h26v-342q0 -88 40 -129.5t114 -41.5q86 0 139.5 51.5t53.5 159.5v302h26zM283 766q12 -22 30.5 -51t39.5 -56t39 -47v-6h-21q-31 33 -63.5 75.5t-54.5 77.5v7h30z
M123 766q12 -22 30.5 -51t39.5 -56t39 -47v-6h-21q-31 33 -63.5 75.5t-54.5 77.5v7h30z" />
    <glyph glyph-name="uni0216" unicode="&#x216;" horiz-adv-x="712" 
d="M618 252q0 -89 -33.5 -147t-92.5 -86.5t-137 -28.5q-124 0 -192 67t-68 197v460h26v-458q0 -120 61.5 -180.5t173.5 -60.5q107 0 171.5 57.5t64.5 171.5v470h26v-462zM358 904q54 0 86 -28.5t36 -83.5h-25q-4 40 -27.5 64t-69.5 24q-49 0 -71 -24t-27 -64h-25
q14 112 123 112z" />
    <glyph glyph-name="uni0217" unicode="&#x217;" horiz-adv-x="573" 
d="M481 528v-528h-21l-4 111h-2q-11 -30 -35 -58t-62.5 -45.5t-94.5 -17.5q-88 0 -134 49t-46 143v346h26v-342q0 -88 40 -129.5t114 -41.5q86 0 139.5 51.5t53.5 159.5v302h26zM289 718q54 0 86 -28.5t36 -83.5h-25q-4 40 -27.5 64t-69.5 24q-49 0 -71 -24t-27 -64h-25
q14 112 123 112z" />
    <glyph glyph-name="uni0218" unicode="&#x218;" horiz-adv-x="543" 
d="M489 180q0 -64 -32.5 -106.5t-87 -63t-119.5 -20.5q-69 0 -113.5 9.5t-80.5 19.5v29q40 -14 87.5 -23.5t108.5 -9.5q57 0 104.5 17.5t76.5 54t29 94.5q0 50 -24 80.5t-68.5 51t-106.5 39.5q-58 19 -103 40.5t-70.5 57t-25.5 94.5q0 60 30.5 100t82 60t114.5 20
q47 0 91.5 -8.5t88.5 -28.5l-11 -23q-46 20 -88.5 27.5t-82.5 7.5q-53 0 -98 -16t-72.5 -49.5t-27.5 -87.5t25 -86t67.5 -50.5t93.5 -34.5q64 -20 111.5 -42.5t74 -58t26.5 -94.5zM310 -67q-9 -39 -23.5 -79t-35.5 -75h-17v6q8 15 18 43.5t18 59t11 51.5h29v-6z" />
    <glyph glyph-name="uni0219" unicode="&#x219;" horiz-adv-x="458" 
d="M411 134q0 -67 -49.5 -105.5t-148.5 -38.5q-55 0 -100 10.5t-74 23.5v30q80 -39 174 -39q91 0 131 32t40 87q0 39 -21.5 62.5t-58 38t-80.5 27.5q-46 14 -84.5 28.5t-61 41t-22.5 75.5q0 62 49 96.5t133 34.5q47 0 88 -8.5t72 -21.5l-11 -25q-28 14 -68.5 22t-80.5 8
q-72 0 -113.5 -26.5t-41.5 -79.5q0 -41 20.5 -62.5t55 -33.5t74.5 -25q44 -14 85 -30t67 -43.5t26 -78.5zM267 -67q-9 -39 -23.5 -79t-35.5 -75h-17v6q8 15 18 43.5t18 59t11 51.5h29v-6z" />
    <glyph glyph-name="uni021A" unicode="&#x21a;" horiz-adv-x="505" 
d="M265 0h-26v689h-237v25h501v-25h-238v-689zM291 -67q-9 -39 -23.5 -79t-35.5 -75h-17v6q8 15 18 43.5t18 59t11 51.5h29v-6z" />
    <glyph glyph-name="uni021B" unicode="&#x21b;" horiz-adv-x="319" 
d="M212 15q25 0 44 3.5t35 9.5v-25q-16 -5 -34.5 -9t-44.5 -4q-70 0 -95.5 40t-25.5 110v363h-81v22l80 3l6 131h21v-131h172v-25h-172v-360q0 -61 20 -94.5t75 -33.5zM229 -67q-9 -39 -23.5 -79t-35.5 -75h-17v6q8 15 18 43.5t18 59t11 51.5h29v-6z" />
    <glyph glyph-name="uni021C" unicode="&#x21c;" horiz-adv-x="542" 
d="M42 -154q150 38 241.5 82.5t133 99.5t41.5 124q0 74 -36.5 120.5t-106.5 78.5q-33 -13 -70.5 -23t-79.5 -21l-6 24q88 22 152 45.5t99 62t35 105.5q0 60 -28 93.5t-69.5 47.5t-82.5 14q-61 0 -109 -20t-90 -50l-15 20q49 35 98.5 55t115.5 20q57 0 104 -19t75 -58.5
t28 -102.5q0 -69 -35 -111t-95 -70q62 -28 102.5 -76.5t40.5 -133.5q0 -81 -46 -141.5t-143.5 -106.5t-253.5 -85v26z" />
    <glyph glyph-name="uni021D" unicode="&#x21d;" horiz-adv-x="465" 
d="M30 -215q108 26 188 58t124 80t44 120q0 62 -32.5 102t-91.5 65q-52 -21 -122 -39l-6 23q79 21 131.5 44t79 56.5t26.5 85.5q0 49 -23.5 78.5t-60.5 42.5t-77 13q-41 0 -81 -11t-72 -28l-10 22q35 18 76 30t87 12q82 0 135 -41t53 -118q0 -56 -29 -95t-81 -63
q33 -13 61.5 -36t46 -58t17.5 -84q0 -84 -48.5 -137.5t-134.5 -87.5t-200 -60v26z" />
    <glyph glyph-name="uni021E" unicode="&#x21e;" horiz-adv-x="706" 
d="M603 0h-26v363h-448v-363h-26v714h26v-326h448v326h26v-714zM341 792q-12 21 -32 48.5t-41.5 55t-40.5 47.5v6h21q28 -28 55.5 -62t48.5 -63q21 29 49.5 63t56.5 62h21v-6q-18 -20 -40.5 -47.5t-43 -55t-32.5 -48.5h-22z" />
    <glyph glyph-name="uni021F" unicode="&#x21f;" horiz-adv-x="573" 
d="M116 496q0 -22 -0.5 -39.5t-1.5 -39.5h2q11 32 35 59.5t63 44.5t95 17q86 0 133 -47t47 -145v-346h-26v345q0 88 -40.5 128t-113.5 40q-86 0 -139.5 -51.5t-53.5 -159.5v-302h-26v760h26v-264zM91 838q-12 21 -32 48.5t-41.5 55t-40.5 47.5v6h21q28 -28 55.5 -62
t48.5 -63q21 29 49.5 63t56.5 62h21v-6q-18 -20 -40.5 -47.5t-43 -55t-32.5 -48.5h-22z" />
    <glyph glyph-name="uni0220" unicode="&#x220;" horiz-adv-x="653" 
d="M342 724q108 0 162.5 -58.5t54.5 -183.5v-722h-26v717q0 121 -48 171.5t-143 50.5q-213 0 -213 -231v-468h-26v714h21l2 -126h2q11 37 36 67.5t68.5 49.5t109.5 19z" />
    <glyph glyph-name="uni0221" unicode="&#x221;" horiz-adv-x="845" 
d="M497 -95q1 20 4.5 51t8.5 55q-16 11 -26 34t-15 65h-1q-12 -31 -35.5 -58.5t-60 -44.5t-89.5 -17q-114 0 -169 68t-55 196q0 137 60 210.5t172 73.5q72 0 116.5 -35.5t60.5 -88.5h2q-1 34 -1.5 66t-0.5 63v217h26v-608q0 -37 5.5 -66t17.5 -45q8 26 21 55.5t35.5 56
t55.5 43.5t79 17q53 0 88 -24.5t35 -72.5q0 -51 -36.5 -83.5t-122.5 -32.5q-48 0 -86.5 2t-50.5 4q-4 -18 -8 -50t-5 -53zM283 15q100 0 142.5 64.5t42.5 183.5v3q0 120 -44 183.5t-133 63.5q-99 0 -152 -64.5t-53 -194.5q0 -120 48.5 -179.5t148.5 -59.5zM670 25
q78 0 106.5 25t28.5 65q0 74 -98 74q-53 0 -86 -24t-51.5 -60t-29.5 -74q18 -2 53 -4t77 -2z" />
    <glyph glyph-name="uni0222" unicode="&#x222;" horiz-adv-x="637" 
d="M321 -12q-128 0 -197.5 61.5t-69.5 171.5q0 69 26 113.5t65 68.5t78 30q-65 9 -100 51.5t-35 144.5v105h26v-102q0 -73 18.5 -113t62.5 -56t120 -16q77 0 123 16t66.5 57.5t20.5 118.5v95h26v-102q0 -70 -17 -110.5t-47.5 -60.5t-70.5 -28q42 -5 80.5 -29t63.5 -69.5
t24 -116.5q-1 -113 -68.5 -171.5t-194.5 -58.5zM321 13q114 0 175 53t61 152q0 103 -57 153.5t-185 50.5q-115 0 -174.5 -51.5t-59.5 -149.5q0 -99 63 -153.5t177 -54.5z" />
    <glyph glyph-name="uni0223" unicode="&#x223;" horiz-adv-x="596" 
d="M301 -12q-106 0 -168.5 62t-62.5 177q0 73 23 119t58 70.5t69 30.5q-38 6 -65.5 24.5t-42 57.5t-14.5 106v99h26v-96q0 -69 17 -107.5t55 -54t99 -15.5q62 0 102 14.5t59 54t19 115.5v89h26v-96q0 -66 -16 -105t-43.5 -58.5t-62.5 -27.5q37 -5 71.5 -29.5t56.5 -71.5
t21 -122q-1 -118 -62 -177t-165 -59zM301 13q92 0 146 54t54 157q0 109 -50 160.5t-156 51.5q-92 0 -145 -52.5t-53 -156.5q0 -103 56.5 -158.5t147.5 -55.5z" />
    <glyph glyph-name="uni0224" unicode="&#x224;" horiz-adv-x="578" 
d="M467 -169q-26 0 -42 9v25q8 -4 19.5 -6.5t22.5 -2.5q45 0 45 63v81h-476v18l453 671h-425v25h462v-18l-453 -671h465v-109q0 -85 -71 -85z" />
    <glyph glyph-name="uni0225" unicode="&#x225;" horiz-adv-x="456" 
d="M415 528v-15l-338 -488h346v-109q0 -85 -71 -85q-26 0 -42 9v25q8 -4 19.5 -6.5t22.5 -2.5q45 0 45 63v81h-356v17l336 486h-309v25h347z" />
    <glyph glyph-name="uni0226" unicode="&#x226;" horiz-adv-x="577" 
d="M549 0l-104 271h-310l-107 -271h-28l282 716h25l270 -716h-28zM325 594q-6 17 -14 38.5t-18 49.5q-7 -22 -16 -45.5t-17 -43.5l-116 -297h291zM288 907q18 0 22.5 -9.5t4.5 -21.5q0 -13 -4.5 -22t-22.5 -9q-15 0 -20 9t-5 22q0 12 5 21.5t20 9.5z" />
    <glyph glyph-name="uni0227" unicode="&#x227;" horiz-adv-x="511" 
d="M264 537q82 0 123 -44.5t41 -142.5v-350h-22l-4 103h-2q-21 -46 -66 -79.5t-126 -33.5q-79 0 -119.5 38t-40.5 101q0 79 66.5 118.5t184.5 46.5l103 6v43q0 90 -34 129.5t-104 39.5q-40 0 -77.5 -9t-80.5 -31l-9 26q40 18 81.5 28.5t85.5 10.5zM301 270
q-102 -5 -163.5 -38t-61.5 -103q0 -53 34 -83.5t98 -30.5q100 0 146.5 57t47.5 148v55zM255 721q18 0 22.5 -9.5t4.5 -21.5q0 -13 -4.5 -22t-22.5 -9q-15 0 -20 9t-5 22q0 12 5 21.5t20 9.5z" />
    <glyph glyph-name="uni0228" unicode="&#x228;" horiz-adv-x="550" 
d="M488 0h-385v714h385v-25h-359v-300h339v-25h-339v-339h359v-25zM367 -145q0 -43 -32 -69t-81 -26q-34 0 -57 6v24q13 -4 25.5 -5t31.5 -1q38 0 63 18t25 52q0 32 -25 46.5t-78 14.5l44 85h25l-33 -65q44 -2 68 -23t24 -57z" />
    <glyph glyph-name="uni0229" unicode="&#x229;" horiz-adv-x="540" 
d="M287 538q68 0 110 -33t62 -88.5t20 -125.5v-25h-393q-1 -121 53 -186t157 -65q48 0 82.5 7t80.5 28v-27q-38 -17 -76.5 -25t-86.5 -8q-83 0 -135.5 35t-77 96t-24.5 138q0 75 25 138.5t75.5 102t127.5 38.5zM287 513q-84 0 -137.5 -56.5t-62.5 -165.5h365q1 99 -40 160.5
t-125 61.5zM364 -145q0 -43 -32 -69t-81 -26q-34 0 -57 6v24q13 -4 25.5 -5t31.5 -1q38 0 63 18t25 52q0 32 -25 46.5t-78 14.5l44 85h25l-33 -65q44 -2 68 -23t24 -57z" />
    <glyph glyph-name="uni022A" unicode="&#x22a;" horiz-adv-x="754" 
d="M506 982v-24h-255v24h255zM284 895q17 0 21 -9.5t4 -21.5q0 -13 -4 -22t-21 -9q-13 0 -18 9t-5 22q0 12 5 21.5t18 9.5zM469 895q17 0 21 -9.5t4 -21.5q0 -13 -4 -22t-21 -9q-13 0 -18 9t-5 22q0 12 5 21.5t18 9.5zM690 358q0 -108 -34.5 -191t-104 -130t-175.5 -47
q-104 0 -173.5 47.5t-104.5 130.5t-35 191t37 190.5t108.5 129t173.5 46.5q148 0 228 -96.5t80 -270.5zM90 359q0 -100 31 -177.5t95 -122t161 -44.5q98 0 161.5 43.5t94 121t30.5 178.5q0 163 -73 252.5t-208 89.5q-98 0 -163 -44t-97 -121t-32 -176z" />
    <glyph glyph-name="uni022B" unicode="&#x22b;" horiz-adv-x="575" 
d="M416 796v-24h-255v24h255zM194 709q17 0 21 -9.5t4 -21.5q0 -13 -4 -22t-21 -9q-13 0 -18 9t-5 22q0 12 5 21.5t18 9.5zM379 709q17 0 21 -9.5t4 -21.5q0 -13 -4 -22t-21 -9q-13 0 -18 9t-5 22q0 12 5 21.5t18 9.5zM515 264q0 -77 -24.5 -139.5t-75 -98.5t-129.5 -36
q-76 0 -126.5 36t-75.5 98t-25 140q0 126 61.5 200t171.5 74q80 0 129 -36.5t71.5 -98.5t22.5 -139zM86 264q0 -73 22 -129.5t66.5 -88t111.5 -31.5q70 0 114.5 32t66 88.5t21.5 128.5q0 69 -19.5 125.5t-62.5 90t-114 33.5q-99 0 -152.5 -66t-53.5 -183z" />
    <glyph glyph-name="uni022C" unicode="&#x22c;" horiz-adv-x="754" 
d="M251 958v24h255v-24h-255zM215 788q4 50 27.5 74t61.5 24q25 0 43.5 -11.5t34 -26t32 -26t36.5 -11.5q22 0 41.5 14.5t23.5 60.5h25q-4 -49 -28.5 -74t-62.5 -25q-25 0 -43.5 11.5t-34 26t-31.5 26t-38 11.5q-20 0 -38.5 -14.5t-23.5 -59.5h-25zM690 358
q0 -108 -34.5 -191t-104 -130t-175.5 -47q-104 0 -173.5 47.5t-104.5 130.5t-35 191t37 190.5t108.5 129t173.5 46.5q148 0 228 -96.5t80 -270.5zM90 359q0 -100 31 -177.5t95 -122t161 -44.5q98 0 161.5 43.5t94 121t30.5 178.5q0 163 -73 252.5t-208 89.5q-98 0 -163 -44
t-97 -121t-32 -176z" />
    <glyph glyph-name="uni022D" unicode="&#x22d;" horiz-adv-x="575" 
d="M161 772v24h255v-24h-255zM125 602q4 50 27.5 74t61.5 24q25 0 43.5 -11.5t34 -26t32 -26t36.5 -11.5q22 0 41.5 14.5t23.5 60.5h25q-4 -49 -28.5 -74t-62.5 -25q-25 0 -43.5 11.5t-34 26t-31.5 26t-38 11.5q-20 0 -38.5 -14.5t-23.5 -59.5h-25zM515 264
q0 -77 -24.5 -139.5t-75 -98.5t-129.5 -36q-76 0 -126.5 36t-75.5 98t-25 140q0 126 61.5 200t171.5 74q80 0 129 -36.5t71.5 -98.5t22.5 -139zM86 264q0 -73 22 -129.5t66.5 -88t111.5 -31.5q70 0 114.5 32t66 88.5t21.5 128.5q0 69 -19.5 125.5t-62.5 90t-114 33.5
q-99 0 -152.5 -66t-53.5 -183z" />
    <glyph glyph-name="uni022E" unicode="&#x22e;" horiz-adv-x="754" 
d="M690 358q0 -108 -34.5 -191t-104 -130t-175.5 -47q-104 0 -173.5 47.5t-104.5 130.5t-35 191t37 190.5t108.5 129t173.5 46.5q148 0 228 -96.5t80 -270.5zM90 359q0 -100 31 -177.5t95 -122t161 -44.5q98 0 161.5 43.5t94 121t30.5 178.5q0 163 -73 252.5t-208 89.5
q-98 0 -163 -44t-97 -121t-32 -176zM376 907q18 0 22.5 -9.5t4.5 -21.5q0 -13 -4.5 -22t-22.5 -9q-15 0 -20 9t-5 22q0 12 5 21.5t20 9.5z" />
    <glyph glyph-name="uni022F" unicode="&#x22f;" horiz-adv-x="575" 
d="M515 264q0 -77 -24.5 -139.5t-75 -98.5t-129.5 -36q-76 0 -126.5 36t-75.5 98t-25 140q0 126 61.5 200t171.5 74q80 0 129 -36.5t71.5 -98.5t22.5 -139zM86 264q0 -73 22 -129.5t66.5 -88t111.5 -31.5q70 0 114.5 32t66 88.5t21.5 128.5q0 69 -19.5 125.5t-62.5 90
t-114 33.5q-99 0 -152.5 -66t-53.5 -183zM287 721q18 0 22.5 -9.5t4.5 -21.5q0 -13 -4.5 -22t-22.5 -9q-15 0 -20 9t-5 22q0 12 5 21.5t20 9.5z" />
    <glyph glyph-name="uni0230" unicode="&#x230;" horiz-adv-x="754" 
d="M506 952v-24h-255v24h255zM377 854q18 0 22.5 -9.5t4.5 -21.5q0 -13 -4.5 -22t-22.5 -9q-15 0 -20 9t-5 22q0 12 5 21.5t20 9.5zM690 358q0 -108 -34.5 -191t-104 -130t-175.5 -47q-104 0 -173.5 47.5t-104.5 130.5t-35 191t37 190.5t108.5 129t173.5 46.5
q148 0 228 -96.5t80 -270.5zM90 359q0 -100 31 -177.5t95 -122t161 -44.5q98 0 161.5 43.5t94 121t30.5 178.5q0 163 -73 252.5t-208 89.5q-98 0 -163 -44t-97 -121t-32 -176z" />
    <glyph glyph-name="uni0231" unicode="&#x231;" horiz-adv-x="575" 
d="M416 796v-24h-255v24h255zM287 698q18 0 22.5 -9.5t4.5 -21.5q0 -13 -4.5 -22t-22.5 -9q-15 0 -20 9t-5 22q0 12 5 21.5t20 9.5zM515 264q0 -77 -24.5 -139.5t-75 -98.5t-129.5 -36q-76 0 -126.5 36t-75.5 98t-25 140q0 126 61.5 200t171.5 74q80 0 129 -36.5t71.5 -98.5
t22.5 -139zM86 264q0 -73 22 -129.5t66.5 -88t111.5 -31.5q70 0 114.5 32t66 88.5t21.5 128.5q0 69 -19.5 125.5t-62.5 90t-114 33.5q-99 0 -152.5 -66t-53.5 -183z" />
    <glyph glyph-name="uni0232" unicode="&#x232;" horiz-adv-x="505" 
d="M253 301l222 413h30l-238 -439v-275h-26v271l-241 443h30zM381 824v-24h-255v24h255z" />
    <glyph glyph-name="uni0233" unicode="&#x233;" horiz-adv-x="428" 
d="M0 528h27l137 -356q18 -48 30.5 -81t19.5 -54h2q8 22 19.5 54t28.5 77l139 360h27l-249 -643q-25 -65 -54.5 -96.5t-78.5 -31.5q-27 0 -54 10v26q14 -5 26 -8t28 -3q38 0 62.5 26t49.5 90l41 108zM342 638v-24h-255v24h255z" />
    <glyph glyph-name="uni0234" unicode="&#x234;" horiz-adv-x="341" 
d="M25 -15q11 37 29 74t40 62q-1 14 -2 33t-1 35v571h26v-613q16 14 41.5 26t60.5 12q49 0 77 -26t28 -70q0 -47 -33.5 -73t-75.5 -26q-48 0 -76 26.5t-40 71.5q-14 -17 -27.5 -47.5t-21.5 -59.5zM215 15q37 0 59.5 21t22.5 53q0 33 -20.5 52t-58.5 19q-31 0 -56 -12.5
t-42 -33.5q4 -40 28 -69.5t67 -29.5z" />
    <glyph glyph-name="uni0235" unicode="&#x235;" horiz-adv-x="715" 
d="M397 -15q11 37 29 74t40 62q-1 14 -2 33t-1 35v156q0 88 -40.5 128t-113.5 40q-86 0 -139.5 -51.5t-53.5 -159.5v-302h-26v528h21l4 -111h2q12 31 35.5 58.5t62 45t94.5 17.5q86 0 133 -47t47 -145v-199q16 14 41.5 26t60.5 12q47 0 76 -26t29 -70q0 -47 -33.5 -73
t-75.5 -26q-48 0 -76 26.5t-40 71.5q-14 -17 -27.5 -47.5t-21.5 -59.5zM587 15q37 0 59.5 21t22.5 53q0 33 -20.5 52t-58.5 19q-31 0 -56 -12.5t-42 -33.5q4 -40 28 -69.5t67 -29.5z" />
    <glyph glyph-name="uni0236" unicode="&#x236;" horiz-adv-x="342" 
d="M25 -15q11 37 29 74t40 62q-1 14 -2 33t-1 35v314h-81v22l80 3l6 131h21v-131h172v-25h-172v-356q16 14 41.5 26t60.5 12q47 0 76 -26t29 -70q0 -47 -33.5 -73t-75.5 -26q-48 0 -76 26.5t-40 71.5q-14 -17 -27.5 -47.5t-21.5 -59.5zM215 15q37 0 59.5 21t22.5 53
q0 33 -20.5 52t-58.5 19q-31 0 -56 -12.5t-42 -33.5q4 -40 28 -69.5t67 -29.5z" />
    <glyph glyph-name="uni0237" unicode="&#x237;" horiz-adv-x="207" 
d="M11 -240q-19 0 -34 3t-27 7v26q15 -7 30.5 -9t30.5 -2q40 0 59.5 26.5t19.5 72.5v644h26v-648q0 -61 -31 -90.5t-74 -29.5z" />
    <glyph glyph-name="uni0238" unicode="&#x238;" horiz-adv-x="962" 
d="M279 -10q-79 0 -127.5 36.5t-70.5 98t-22 137.5q0 134 56.5 205.5t166.5 71.5q79 0 124.5 -39.5t61.5 -93.5h2q-1 24 -1.5 59.5t-0.5 59.5v235h26v-235q0 -24 -0.5 -59.5t-1.5 -59.5h2q16 54 61.5 93.5t124.5 39.5q110 0 166.5 -71.5t56.5 -205.5q0 -76 -22 -137.5
t-70.5 -98t-127.5 -36.5q-165 0 -202 163q-37 -163 -202 -163zM279 15q98 0 143.5 63t45.5 185t-45.5 186.5t-140.5 64.5q-98 0 -147 -64.5t-49 -187.5q0 -120 48 -183.5t145 -63.5zM683 15q97 0 145 63.5t48 183.5q0 123 -49 187.5t-147 64.5q-94 0 -140 -64.5t-46 -186.5
q0 -248 189 -248z" />
    <glyph glyph-name="uni0239" unicode="&#x239;" horiz-adv-x="962" 
d="M683 539q79 0 127.5 -36.5t70.5 -98t22 -137.5q0 -133 -56.5 -205t-166.5 -72q-79 0 -124.5 39.5t-61.5 93.5h-2q1 -24 1.5 -59.5t0.5 -59.5v-235h-26v235q0 24 0.5 59.5t1.5 59.5h-2q-16 -54 -61.5 -93.5t-124.5 -39.5q-110 0 -166.5 72t-56.5 205q0 76 22 137.5
t70.5 98t127.5 36.5q165 0 202 -163q37 163 202 163zM279 514q-97 0 -145 -63.5t-48 -183.5q0 -123 49 -187.5t147 -64.5q95 0 140.5 65t45.5 186q0 248 -189 248zM683 514q-97 0 -143 -63t-46 -185q0 -121 46 -186t140 -65q98 0 147 64.5t49 187.5q0 120 -48 183.5
t-145 63.5z" />
    <glyph glyph-name="uni023A" unicode="&#x23a;" horiz-adv-x="577" 
d="M549 0l-104 271h-133l-120 -346h-26l120 346h-151l-107 -271h-28l282 716h25l70 -185l79 229h26l-92 -264l187 -496h-28zM325 594q-6 17 -14 38.5t-18 49.5q-7 -22 -16 -45.5t-17 -43.5l-116 -297h151l68 196zM435 296l-59 159l-55 -159h114z" />
    <glyph glyph-name="uni023B" unicode="&#x23b;" horiz-adv-x="614" 
d="M532 760l-17 -49q35 -9 68 -24l-10 -25q-32 17 -66 26l-228 -657q48 -16 107 -16q58 0 103 8t81 21v-23q-33 -13 -79 -22t-105 -9q-63 0 -115 17l-29 -82h-26l32 91q-92 39 -138.5 129t-46.5 215q0 104 41 186.5t117.5 130t183.5 47.5q45 0 86 -8l15 44h26zM405 699
q-100 0 -170.5 -44t-107.5 -120.5t-37 -174.5q0 -116 41.5 -199.5t124.5 -120.5l227 653q-20 3 -39.5 4.5t-38.5 1.5z" />
    <glyph glyph-name="uni023C" unicode="&#x23c;" horiz-adv-x="472" 
d="M302 -10q-49 0 -89 13l-52 -151h-26l55 160q-67 30 -99 96.5t-32 152.5q0 81 31.5 143.5t89.5 98t139 35.5q28 0 53 -4l53 153h26l-55 -158q23 -5 46 -15l-5 -25q-24 11 -49 16l-166 -478q36 -12 80 -12q36 0 71.5 7t64.5 19v-25q-25 -10 -60 -18t-76 -8zM86 261
q0 -75 27 -135t86 -89l165 473q-22 3 -45 3q-72 0 -124 -32t-80.5 -89t-28.5 -131z" />
    <glyph glyph-name="uni023D" unicode="&#x23d;" horiz-adv-x="506" 
d="M103 0v330h-96v25h96v359h26v-359h198v-25h-198v-305h357v-25h-383z" />
    <glyph glyph-name="uni023E" unicode="&#x23e;" horiz-adv-x="505" 
d="M265 0h-26v303l-203 -378h-28l231 431v333h-237v25h429l25 46h28l-25 -46h44v-25h-57l-181 -337v-352zM265 689v-285l153 285h-153z" />
    <glyph glyph-name="uni023F" unicode="&#x23f;" horiz-adv-x="458" 
d="M332 -240q-44 0 -68.5 16t-37.5 48t-24 79q-10 44 -27.5 65.5t-58.5 31.5q-20 5 -42 12t-35 13v29q80 -39 174 -39q91 0 131 32t40 87q0 39 -21.5 62.5t-58 38t-80.5 27.5q-46 14 -84.5 28.5t-61 41t-22.5 75.5q0 62 49 96.5t133 34.5q47 0 88 -8.5t72 -21.5l-11 -25
q-28 14 -68.5 22t-80.5 8q-72 0 -113.5 -26.5t-41.5 -79.5q0 -41 20.5 -62.5t55 -33.5t74.5 -25q44 -14 85 -30t67 -43.5t26 -78.5q0 -79 -61 -112.5t-162 -31.5q16 -10 24 -30t14 -46q11 -46 21 -74.5t30 -41.5t60 -13q23 0 42 4.5t31 9.5v-25q-11 -4 -30.5 -9t-47.5 -5z
" />
    <glyph glyph-name="uni0240" unicode="&#x240;" horiz-adv-x="456" 
d="M354 -240q-49 0 -78.5 16t-48.5 48t-37 79q-21 57 -54.5 77t-88.5 20h-6v17l336 486h-309v25h347v-15l-342 -493q50 -2 84.5 -24t56.5 -82q17 -45 33.5 -73.5t42 -42t68.5 -13.5q26 0 48 4.5t35 9.5v-25q-13 -4 -34 -9t-53 -5z" />
    <glyph glyph-name="Glottalstopcased" unicode="&#x241;" horiz-adv-x="397" 
d="M179 723q91 0 142.5 -51.5t51.5 -143.5q0 -58 -17.5 -98.5t-46.5 -68t-63 -46t-66 -32.5v-283h-26v299q36 15 70.5 32.5t62 42.5t43.5 62t16 90q0 84 -45 128t-123 44q-53 0 -91.5 -13t-67.5 -27l-10 23q34 17 73.5 29.5t96.5 12.5z" />
    <glyph glyph-name="glottalstopcased" unicode="&#x242;" horiz-adv-x="391" 
d="M179 536q91 0 142.5 -50.5t51.5 -136.5q0 -52 -17.5 -90.5t-46.5 -65t-63 -44.5t-66 -31v-118h-26v134q48 18 92 42.5t72 65t28 105.5q0 78 -45 121t-123 43q-53 0 -91.5 -13t-67.5 -27l-10 23q34 17 73.5 29.5t96.5 12.5z" />
    <glyph glyph-name="uni0243" unicode="&#x243;" horiz-adv-x="613" 
d="M103 0v186h-86v25h86v503h191q131 0 188 -43t57 -129q0 -61 -36 -107t-105 -58v-2q89 -13 124 -58.5t35 -113.5q0 -73 -33 -118t-90.5 -65t-130.5 -20h-200zM303 388q209 0 209 153q0 79 -52.5 113.5t-168.5 34.5h-162v-301h174zM311 25q102 0 160.5 42.5t58.5 134.5
q0 62 -27.5 97t-79 49.5t-123.5 14.5h-171v-152h154v-25h-154v-161h182z" />
    <glyph glyph-name="uni0244" unicode="&#x244;" horiz-adv-x="712" 
d="M13 386v25h82v303h26v-303h471v303h26v-303h80v-25h-80v-134q0 -89 -33.5 -147t-92.5 -86.5t-137 -28.5q-124 0 -192 67t-68 197v132h-82zM121 256q0 -120 61.5 -180.5t173.5 -60.5q107 0 171.5 57.5t64.5 171.5v142h-471v-130z" />
    <glyph glyph-name="uni0245" unicode="&#x245;" horiz-adv-x="557" 
d="M0 0l272 716h25l260 -716h-28l-216 594q-6 17 -13 38.5t-17 49.5q-7 -22 -15 -46.5t-16 -44.5l-224 -591h-28z" />
    <glyph glyph-name="uni0246" unicode="&#x246;" horiz-adv-x="550" 
d="M488 0h-285l-26 -75h-26l26 75h-74v714h322l16 46h26l-16 -46h37v-25h-46l-104 -300h130v-25h-139l-117 -339h276v-25zM129 389h183l104 300h-287v-300zM129 25h57l117 339h-174v-339z" />
    <glyph glyph-name="uni0247" unicode="&#x247;" horiz-adv-x="540" 
d="M287 538q37 0 67 -11l52 149h26l-55 -159q53 -28 77.5 -88.5t24.5 -137.5v-25h-189l-82 -236q39 -15 88 -15q48 0 82.5 7t80.5 28v-27q-38 -17 -76.5 -25t-86.5 -8q-54 0 -97 16l-57 -165h-26l61 175q-61 32 -89.5 96t-28.5 147q0 75 25 138.5t75.5 102t127.5 38.5z
M287 513q-84 0 -137.5 -56.5t-62.5 -165.5h185l74 212q-27 10 -59 10zM452 291q1 71 -20 123.5t-64 77.5l-70 -201h154zM86 266q-2 -167 100 -225l78 225h-178z" />
    <glyph glyph-name="uni0248" unicode="&#x248;" horiz-adv-x="231" 
d="M-21 -174q-25 0 -44 4t-32 9v26q31 -13 75 -13q73 0 100.5 38t27.5 100v342h-96v25h96v357h26v-357h97v-25h-97v-339q0 -82 -35 -124.5t-118 -42.5z" />
    <glyph glyph-name="uni0249" unicode="&#x249;" horiz-adv-x="207" 
d="M103 659q-15 0 -20 9t-5 22q0 12 5 21.5t20 9.5q18 0 22.5 -9.5t4.5 -21.5q0 -13 -4.5 -22t-22.5 -9zM11 -240q-19 0 -34 3t-27 7v26q15 -7 30.5 -9t30.5 -2q40 0 59.5 26.5t19.5 72.5v367h-83v25h83v252h26v-252h87v-25h-87v-371q0 -61 -31 -90.5t-74 -29.5z" />
    <glyph glyph-name="uni024A" unicode="&#x24a;" horiz-adv-x="733" 
d="M371 722q69 0 120.5 -23.5t85 -63t47.5 -87.5h2l1 166h24v-832q0 -52 20 -76t60 -24q17 0 29 3t24 7v-25q-10 -4 -24 -7t-31 -3q-104 0 -104 118v181q0 24 0.5 56.5t1.5 57.5h-2q-15 -50 -48.5 -91t-85 -65t-123.5 -24q-104 0 -171 47.5t-99.5 131t-32.5 191.5t34 189.5
t102 127t170 45.5zM370 697q-96 0 -157.5 -43.5t-91 -119.5t-29.5 -175q0 -100 28.5 -177.5t90 -122t159.5 -44.5q70 0 128 30.5t92.5 94.5t34.5 162v116q0 99 -35 160.5t-93 90t-127 28.5z" />
    <glyph glyph-name="uni024B" unicode="&#x24b;" horiz-adv-x="583" 
d="M285 538q71 0 116 -33.5t62 -80.5h2l4 104h22v-646q0 -52 20 -76t60 -24q17 0 29 3t24 7v-25q-10 -4 -24 -7t-31 -3q-104 0 -104 118v128q0 24 0.5 59t1.5 60h-2q-16 -58 -68 -95.5t-128 -37.5q-105 0 -159 70t-54 203q0 76 23.5 138.5t74.5 100t131 37.5zM285 513
q-99 0 -150.5 -65.5t-51.5 -185.5q0 -248 186 -248q101 0 148.5 67t47.5 184v10q0 116 -44.5 177t-135.5 61z" />
    <glyph glyph-name="uni024C" unicode="&#x24c;" horiz-adv-x="577" 
d="M262 714q83 0 139.5 -16.5t85.5 -57.5t29 -115q0 -79 -42.5 -128.5t-118.5 -69.5l196 -327h-33l-191 320h-198v-320h-26v320h-93v25h93v369h159zM257 689h-128v-344h163q87 0 142 47t55 132q0 64 -25.5 100t-77 50.5t-129.5 14.5z" />
    <glyph glyph-name="uni024D" unicode="&#x24d;" horiz-adv-x="375" 
d="M261 289v-25h-144v-264h-26v264h-76v25h76v239h24l2 -101h2q14 46 54.5 77.5t104.5 31.5q24 0 43.5 -3t37.5 -8l-6 -24q-19 5 -35.5 7.5t-39.5 2.5q-83 0 -122 -58t-39 -156v-8h144z" />
    <glyph glyph-name="uni024E" unicode="&#x24e;" horiz-adv-x="505" 
d="M492 581v-25h-73l-152 -281v-275h-26v271l-155 285h-76v25h62l-72 133h30l72 -133h302l71 133h30l-72 -133h59zM253 301l137 255h-275z" />
    <glyph glyph-name="uni024F" unicode="&#x24f;" horiz-adv-x="428" 
d="M0 528h27l72 -188h231l73 188h27l-73 -188h69v-25h-78l-167 -430q-25 -65 -54.5 -96.5t-78.5 -31.5q-27 0 -54 10v26q14 -5 26 -8t28 -3q38 0 62.5 26t49.5 90l41 108l-119 309h-82v25h72zM214 37h2q8 22 19.5 54t28.5 77l57 147h-212l55 -143q18 -48 30.5 -81t19.5 -54z
" />
    <glyph glyph-name="uni0250" unicode="&#x250;" horiz-adv-x="511" 
d="M247 -9q-82 0 -123 45t-41 142v350h22l4 -103h2q21 46 66 79.5t126 33.5q80 0 120 -38t40 -101q0 -79 -66.5 -118.5t-184.5 -46.5l-103 -6v-43q0 -90 34 -129.5t104 -39.5q40 0 77.5 9t80.5 31l9 -26q-40 -18 -81.5 -28.5t-85.5 -10.5zM210 258q102 5 163.5 38t61.5 103
q0 53 -34 83.5t-98 30.5q-100 0 -146 -57t-48 -148v-55z" />
    <glyph glyph-name="uni0251" unicode="&#x251;" horiz-adv-x="583" 
d="M274 -10q-106 0 -160.5 69.5t-54.5 198.5q0 137 57.5 208.5t165.5 71.5q77 0 122.5 -36.5t61.5 -91.5h2l2 118h24v-409q0 -60 12.5 -82t38.5 -22q21 0 37 6v-24q-16 -7 -38 -7q-45 0 -60.5 29.5t-15.5 97.5h-2q-18 -53 -63.5 -90t-128.5 -37zM274 15q102 0 147.5 65.5
t45.5 182.5v3q0 120 -46.5 183.5t-138.5 63.5q-94 0 -145 -62.5t-51 -192.5q0 -119 48 -181t140 -62z" />
    <glyph glyph-name="uni0252" unicode="&#x252;" horiz-adv-x="583" 
d="M309 538q106 0 160.5 -69.5t54.5 -198.5q0 -137 -57.5 -208.5t-165.5 -71.5q-76 0 -122 36.5t-62 91.5h-2l-2 -118h-24v409q0 60 -12.5 82t-38.5 22q-20 0 -37 -6v24q16 7 38 7q45 0 60.5 -29.5t15.5 -97.5h2q18 53 64 90t128 37zM309 513q-102 0 -147.5 -65.5
t-45.5 -182.5v-3q0 -120 46.5 -183.5t138.5 -63.5q95 0 145.5 62.5t50.5 192.5q0 119 -48 181t-140 62z" />
    <glyph glyph-name="uni0253" unicode="&#x253;" horiz-adv-x="583" 
d="M228 765q14 0 26.5 -1.5t25.5 -3.5v-26q-22 6 -52 6q-56 0 -84.5 -31t-28.5 -97v-99q0 -24 -0.5 -53t-1.5 -54h2q17 58 68.5 95.5t127.5 37.5q105 0 159 -69.5t54 -203.5q0 -76 -23.5 -138.5t-74 -100t-131.5 -37.5q-71 0 -115.5 32.5t-62.5 81.5h-2l-4 -104h-22v615
q0 71 36 110.5t103 39.5zM311 514q-100 0 -148 -67t-48 -184q0 -248 180 -248q99 0 150.5 65.5t51.5 185.5q0 248 -186 248z" />
    <glyph glyph-name="uni0254" unicode="&#x254;" horiz-adv-x="473" 
d="M177 538q124 0 180.5 -72.5t56.5 -193.5q0 -77 -25.5 -141.5t-80 -102.5t-143.5 -38q-41 0 -75.5 7t-59.5 17v27q29 -12 65 -19t72 -7q80 0 128.5 35.5t70 94t21.5 126.5q0 111 -51.5 176.5t-161.5 65.5q-28 0 -67 -7t-69 -21l-5 25q28 12 68 20t76 8z" />
    <glyph glyph-name="uni0255" unicode="&#x255;" horiz-adv-x="494" 
d="M319 538q36 0 65.5 -6t57.5 -18l-5 -25q-30 14 -59.5 19t-58.5 5q-72 0 -124 -32t-80.5 -89t-28.5 -131q0 -46 9.5 -87t30.5 -73q32 43 82.5 71.5t116.5 28.5q59 0 94.5 -28t35.5 -73q0 -47 -38 -78.5t-115 -31.5q-58 0 -101 17.5t-73 48.5q-12 -20 -20.5 -44t-15.5 -50
l-25 6q14 58 43 109q-25 36 -38 83t-13 101q0 81 31.5 143.5t89.5 98t139 35.5zM323 176q-57 0 -104 -26.5t-77 -69.5q26 -30 66.5 -47.5t93.5 -17.5q65 0 95.5 25t30.5 58q0 35 -27.5 56.5t-77.5 21.5z" />
    <glyph glyph-name="uni0256" unicode="&#x256;" horiz-adv-x="583" 
d="M593 -237q-61 0 -94 35t-33 104v101q0 24 0.5 59t1.5 60h-2q-11 -35 -36 -65t-65 -48.5t-95 -18.5q-105 0 -159 68.5t-54 200.5q0 134 58.5 206.5t164.5 72.5q79 0 124.5 -36.5t61.5 -89.5h2q-1 34 -1.5 67t-0.5 64v217h26v-851q0 -66 28 -93.5t74 -27.5q20 0 35 3t25 7
v-25q-10 -4 -26.5 -7t-34.5 -3zM270 15q96 0 145.5 65.5t49.5 182.5v3q0 128 -49.5 187.5t-135.5 59.5q-92 0 -144 -64t-52 -190q0 -124 47.5 -184t138.5 -60z" />
    <glyph glyph-name="uni0257" unicode="&#x257;" horiz-adv-x="583" 
d="M283 -10q-114 0 -169 68t-55 196q0 137 60 210.5t172 73.5q72 0 116.5 -35.5t60.5 -88.5h2q-1 34 -1.5 66t-0.5 63v101q0 61 31 90.5t74 29.5q19 0 34 -2.5t27 -7.5v-26q-15 7 -30.5 9t-30.5 2q-40 0 -59.5 -26t-19.5 -73v-640h-22l-2 113h-2q-18 -50 -62 -86.5
t-123 -36.5zM283 15q100 0 142.5 65.5t42.5 182.5v3q0 120 -44 183.5t-133 63.5q-99 0 -152 -64.5t-53 -194.5q0 -120 48.5 -179.5t148.5 -59.5z" />
    <glyph glyph-name="uni0258" unicode="&#x258;" horiz-adv-x="540" 
d="M253 538q77 0 127.5 -38.5t75.5 -102t25 -138.5q0 -77 -24.5 -138t-77 -96t-135.5 -35q-48 0 -86.5 8t-76.5 25v27q47 -21 81 -28t82 -7q103 0 157.5 65t52.5 186h-393v25q0 70 20 125.5t62.5 88.5t109.5 33zM253 513q-84 0 -125 -61.5t-40 -160.5h365
q-9 109 -62.5 165.5t-137.5 56.5z" />
    <glyph glyph-name="uni0259" unicode="&#x259;" horiz-adv-x="540" 
d="M244 538q83 0 135.5 -35t77 -95.5t24.5 -138.5q0 -74 -25 -138t-75.5 -102.5t-127.5 -38.5q-67 0 -109.5 33t-62.5 89t-20 125v25h393q2 121 -52.5 186t-157.5 65q-48 0 -82 -7t-81 -28v27q38 17 76.5 25t86.5 8zM88 237q-1 -99 40 -160.5t125 -61.5t137.5 56.5
t62.5 165.5h-365z" />
    <glyph glyph-name="uni025A" unicode="&#x25a;" horiz-adv-x="742" 
d="M249 -10q-98 0 -144 61t-46 167l390 100q-5 50 -26.5 94.5t-65.5 72.5t-117 28q-42 0 -82.5 -9.5t-76.5 -23.5v26q37 14 76.5 23t85.5 9q109 0 165 -59.5t68 -154.5l91 25l12 -45q14 -53 32.5 -76t54.5 -23q21 0 35.5 4t27.5 8l13 -26q-18 -5 -36 -9.5t-37 -4.5
q-41 0 -64.5 19t-36 51.5t-21.5 70.5l-69 -20q0 -88 -21 -158t-70.5 -110t-137.5 -40zM251 16q104 0 152 68.5t48 207.5l-365 -93q1 -44 15.5 -86.5t50 -69.5t99.5 -27z" />
    <glyph glyph-name="uni025B" unicode="&#x25b;" horiz-adv-x="435" 
d="M316 294v-25h-60q-86 0 -134 -31t-48 -100q0 -52 39.5 -87.5t124.5 -35.5q45 0 83.5 8t75.5 22v-25q-26 -11 -67.5 -20.5t-91.5 -9.5q-97 0 -144 41t-47 107q0 53 28.5 90.5t88.5 52.5v2q-57 17 -78 47.5t-21 70.5q0 50 25 80t65.5 43.5t86.5 13.5q49 0 83.5 -8t70.5 -22
l-9 -24q-29 13 -66.5 21t-77.5 8q-74 0 -112.5 -29t-38.5 -83q0 -52 41.5 -79.5t128.5 -27.5h54z" />
    <glyph glyph-name="uni025C" unicode="&#x25c;" horiz-adv-x="429" 
d="M200 538q77 0 116.5 -35t39.5 -99q0 -44 -23 -75t-66 -44v-2q60 -12 84.5 -49t24.5 -84q0 -52 -24.5 -87.5t-67 -54t-96.5 -18.5q-51 0 -91 10.5t-66 24.5v30q37 -21 75.5 -30.5t81.5 -9.5q71 0 116 35.5t45 100.5t-42 91.5t-119 26.5h-71v25h71q65 0 103 27.5t38 82.5
q0 53 -33 81t-96 28q-43 0 -77.5 -10.5t-68.5 -27.5l-10 24q34 17 70.5 28t85.5 11z" />
    <glyph glyph-name="uni025D" unicode="&#x25d;" horiz-adv-x="593" 
d="M200 538q115 0 146 -78l72 23l12 -45q14 -53 32.5 -76t54.5 -23q21 0 35.5 4t27.5 8l13 -26q-18 -5 -36 -9.5t-37 -4.5q-41 0 -64.5 19t-36 51.5t-21.5 70.5l-45 -14q3 -16 3 -34q0 -44 -23 -75t-66 -44v-2q60 -12 84.5 -49t24.5 -84q0 -52 -24.5 -87.5t-67 -54
t-96.5 -18.5q-51 0 -91 10.5t-66 24.5v30q37 -21 75.5 -30.5t81.5 -9.5q71 0 116 35.5t45 100.5t-42 91.5t-119 26.5h-71v25h71q65 0 103 27.5t38 82.5q0 53 -33 81t-96 28q-43 0 -77.5 -10.5t-68.5 -27.5l-10 24q34 17 70.5 28t85.5 11z" />
    <glyph glyph-name="uni025E" unicode="&#x25e;" horiz-adv-x="524" 
d="M295 538q74 0 119 -35.5t45 -98.5q0 -45 -24.5 -77t-74.5 -43v-2q60 -15 88.5 -47t28.5 -87q0 -69 -49.5 -113.5t-149.5 -44.5q-114 0 -166.5 72.5t-52.5 196.5q0 83 26 146t78.5 98t131.5 35zM295 513q-72 0 -118 -32t-68.5 -89t-22.5 -133q0 -116 46.5 -180t147.5 -64
q87 0 128.5 39t41.5 94q0 66 -48 93.5t-134 27.5h-40v25h34q87 0 128.5 26.5t41.5 83.5q0 50 -36.5 79.5t-100.5 29.5z" />
    <glyph glyph-name="uni025F" unicode="&#x25f;" horiz-adv-x="207" 
d="M11 -240q-19 0 -34 3t-27 7v26q15 -7 30.5 -9t30.5 -2q40 0 59.5 26.5t19.5 72.5v367h-83v25h83v252h26v-252h87v-25h-87v-371q0 -61 -31 -90.5t-74 -29.5z" />
    <glyph glyph-name="uni0260" unicode="&#x260;" horiz-adv-x="583" 
d="M571 764q19 0 34 -2.5t27 -7.5v-26q-15 7 -30.5 9t-30.5 2q-40 0 -59.5 -26t-19.5 -73v-665q0 -63 -21.5 -111.5t-69.5 -76t-128 -27.5q-61 0 -105.5 11t-80.5 26v30q36 -17 83 -29.5t103 -12.5q106 0 149.5 52t43.5 138v42q0 29 0.5 50t1.5 50h-2q-18 -62 -67 -94.5
t-123 -32.5q-102 0 -159.5 67.5t-57.5 198.5t58 206.5t173 75.5q73 0 113.5 -30t61.5 -74h2q-1 22 -1 42v47v121q0 61 31 90.5t74 29.5zM290 513q-105 0 -154.5 -68t-49.5 -189q0 -118 49.5 -179.5t140.5 -61.5q59 0 96 20.5t57.5 54t28.5 74.5t8 82v48q0 63 -16 112.5
t-54 78t-106 28.5z" />
    <glyph glyph-name="uni0261" unicode="&#x261;" horiz-adv-x="583" 
d="M290 538q73 0 112.5 -28.5t60.5 -72.5h2l5 91h22v-553q0 -63 -21.5 -111.5t-69.5 -76t-128 -27.5q-61 0 -105.5 11t-80.5 26v30q36 -17 83 -29.5t103 -12.5q106 0 149.5 52t43.5 138v42q0 29 0.5 50t1.5 50h-2q-18 -62 -67 -94.5t-123 -32.5q-102 0 -159.5 67.5
t-57.5 198.5t58 206.5t173 75.5zM290 513q-105 0 -154.5 -68t-49.5 -189q0 -118 49.5 -179.5t140.5 -61.5q59 0 96 20.5t57.5 54t28.5 74.5t8 82v48q0 63 -16 112.5t-54 78t-106 28.5z" />
    <glyph glyph-name="uni0262" unicode="&#x262;" horiz-adv-x="573" 
d="M337 540q46 0 84.5 -9.5t71.5 -25.5l-10 -26q-31 17 -68 26.5t-81 9.5q-76 0 -134 -31.5t-90 -87.5t-32 -130q0 -115 65 -182t187 -67q42 0 78.5 8t62.5 18v191h-167v25h193v-232q-38 -16 -80 -25.5t-93 -9.5q-85 0 -146 33.5t-94 95t-33 144.5q0 77 34.5 139.5t98.5 99
t153 36.5z" />
    <glyph glyph-name="uni0263" unicode="&#x263;" horiz-adv-x="430" 
d="M220 -240q-42 0 -66 28t-24 73q0 50 22.5 102t53.5 112l-206 453h30l141 -314q16 -34 29.5 -64.5t21.5 -48.5h2q7 18 20 47.5t29 66.5l140 313h30l-204 -452q30 -61 51.5 -111t21.5 -104q0 -44 -24 -72.5t-68 -28.5zM222 -215q63 0 63 78q0 47 -19.5 93t-42.5 97
q-25 -51 -45.5 -98.5t-20.5 -91.5q0 -40 17.5 -59t47.5 -19z" />
    <glyph glyph-name="uni0264" unicode="&#x264;" horiz-adv-x="506" 
d="M464 536q17 0 28 -3t18 -7v-27q-17 12 -46 12t-47.5 -19t-39.5 -54l-106 -179q28 -44 46.5 -84t18.5 -87q0 -45 -22 -71t-64 -26q-40 0 -61.5 25.5t-21.5 68.5q0 49 21 89.5t49 84.5l-107 182q-21 36 -38.5 53t-46.5 17q-17 0 -30 -5t-18 -9v26q7 5 21 9t30 4
q35 0 57 -17.5t47 -61.5l71 -122q11 -19 18.5 -31t12.5 -24h1q5 12 11.5 23.5t19.5 32.5l73 122q26 43 48.5 60.5t56.5 17.5zM254 236q-28 -40 -44 -75.5t-16 -73.5t15.5 -54.5t40.5 -16.5q24 0 41.5 16.5t17.5 53.5q0 38 -14.5 72.5t-40.5 77.5z" />
    <glyph glyph-name="uni0265" unicode="&#x265;" horiz-adv-x="573" 
d="M457 32q0 23 0.5 40t1.5 39h-2q-10 -31 -34.5 -59t-63.5 -45t-95 -17q-85 0 -132.5 47t-47.5 145v346h26v-345q0 -88 40.5 -128t113.5 -40q86 0 139.5 51.5t53.5 159.5v302h26v-760h-26v264z" />
    <glyph glyph-name="uni0266" unicode="&#x266;" horiz-adv-x="573" 
d="M90 644q0 61 31 90.5t74 29.5q19 0 34 -2.5t27 -7.5v-26q-15 7 -30.5 9t-30.5 2q-40 0 -59.5 -26t-19.5 -73v-144q0 -22 -0.5 -39.5t-1.5 -39.5h2q11 32 35 59.5t63 44.5t95 17q86 0 133 -47t47 -145v-346h-26v345q0 88 -40.5 128t-113.5 40q-86 0 -139.5 -51.5
t-53.5 -159.5v-302h-26v644z" />
    <glyph glyph-name="uni0267" unicode="&#x267;" horiz-adv-x="589" 
d="M195 764q19 0 34 -2.5t27 -7.5v-26q-15 7 -30.5 9t-30.5 2q-40 0 -59.5 -26t-19.5 -73v-144q0 -22 -0.5 -39.5t-1.5 -39.5h2q11 32 35 59.5t63 44.5t95 17q86 0 133 -47t47 -145v-466q0 -61 -31 -90.5t-74 -29.5q-19 0 -34 3t-27 7v26q15 -7 30.5 -9t30.5 -2
q40 0 59.5 26.5t19.5 72.5v461q0 88 -40.5 128t-113.5 40q-86 0 -139.5 -51.5t-53.5 -159.5v-302h-26v644q0 61 31 90.5t74 29.5z" />
    <glyph glyph-name="uni0268" unicode="&#x268;" horiz-adv-x="207" 
d="M103 721q18 0 22.5 -9.5t4.5 -21.5q0 -13 -4.5 -22t-22.5 -9q-15 0 -20 9t-5 22q0 12 5 21.5t20 9.5zM197 295v-25h-81v-270h-26v270h-80v25h80v233h26v-233h81z" />
    <glyph glyph-name="uni0269" unicode="&#x269;" horiz-adv-x="274" 
d="M185 -10q-43 0 -74 29.5t-31 90.5v418h26v-414q0 -46 19.5 -72.5t59.5 -26.5q15 0 30.5 2t30.5 9v-26q-12 -4 -27 -7t-34 -3z" />
    <glyph glyph-name="iotaserifed" unicode="&#x26a;" horiz-adv-x="294" 
d="M230 528v-20l-70 -4v-480l70 -4v-20h-166v20l70 4v480l-70 4v20h166z" />
    <glyph glyph-name="uni026B" unicode="&#x26b;" horiz-adv-x="207" 
d="M91 389q-14 12 -28.5 21.5t-34.5 9.5t-38.5 -14.5t-23.5 -59.5h-25q4 50 27.5 74t61.5 24q19 0 33.5 -7t27.5 -17v340h26v-362q14 -11 28 -20t31 -9q22 0 41.5 14.5t23.5 60.5h25q-4 -49 -28.5 -74t-62.5 -25q-18 0 -32 6t-26 15v-366h-26v389z" />
    <glyph glyph-name="uni026C" unicode="&#x26c;" horiz-adv-x="259" 
d="M137 0v318h-59q-40 0 -66 18.5t-26 58.5q0 32 21.5 51.5t57.5 19.5q26 0 44 -11t28 -31v336h26v-417h86v-25h-86v-318h-26zM82 343h55v7q-1 34 -16.5 63t-54.5 29q-27 0 -40.5 -13t-13.5 -33q0 -53 70 -53z" />
    <glyph glyph-name="uni026D" unicode="&#x26d;" horiz-adv-x="207" 
d="M205 -240q-114 0 -114 126v874h26v-865q0 -61 23 -85.5t67 -24.5q14 0 27 2.5t22 5.5v-26q-8 -2 -21 -4.5t-30 -2.5z" />
    <glyph glyph-name="uni026E" unicode="&#x26e;" horiz-adv-x="557" 
d="M300 -240q-50 0 -89.5 8.5t-74.5 23.5v30q36 -17 77 -27t87 -10q95 0 147 55t52 146q0 94 -61.5 139t-195.5 45h-38v22l266 311h-353v-503h-26v760h26v-232h394v-20l-272 -313q155 0 221 -54.5t66 -154.5q0 -101 -59.5 -163.5t-166.5 -62.5z" />
    <glyph glyph-name="uni026F" unicode="&#x26f;" horiz-adv-x="852" 
d="M238 -10q-67 0 -111.5 43t-44.5 134v361h26v-360q0 -80 37.5 -116.5t92.5 -36.5q75 0 123 44t48 144v325h26v-360q0 -80 37.5 -116.5t92.5 -36.5q47 0 85.5 19t62 60.5t23.5 108.5v325h26v-528h-21l-4 96h-2q-10 -24 -30.5 -48.5t-54.5 -41t-85 -16.5q-55 0 -93.5 28
t-52.5 81h-2q-19 -49 -63.5 -79t-115.5 -30z" />
    <glyph glyph-name="uni0270" unicode="&#x270;" horiz-adv-x="852" 
d="M762 528v-768h-26v333h-2q-10 -24 -30.5 -48t-54 -39.5t-84.5 -15.5q-52 0 -91.5 27.5t-56.5 80.5h-2q-19 -52 -64.5 -80t-112.5 -28t-111.5 43t-44.5 134v361h26v-360q0 -80 37.5 -116.5t92.5 -36.5q75 0 123 44t48 144v325h26v-360q0 -80 37.5 -116.5t92.5 -36.5
q47 0 85.5 19t62 60.5t23.5 108.5v325h26z" />
    <glyph glyph-name="uni0271" unicode="&#x271;" horiz-adv-x="852" 
d="M614 538q68 0 112 -43t44 -134v-481q0 -61 -31 -90.5t-74 -29.5q-19 0 -34 3t-27 7v26q15 -7 30.5 -9t30.5 -2q40 0 59.5 26.5t19.5 72.5v476q0 80 -37.5 116.5t-92.5 36.5q-75 0 -123 -43.5t-48 -144.5v-325h-26v360q0 80 -37.5 116.5t-92.5 36.5q-46 0 -85 -19
t-62.5 -60.5t-23.5 -108.5v-325h-26v528h21l4 -96h2q11 25 31 49t54 40.5t85 16.5q53 0 91 -26.5t54 -80.5h5q21 50 65.5 78.5t111.5 28.5z" />
    <glyph glyph-name="uni0272" unicode="&#x272;" horiz-adv-x="573" 
d="M309 538q86 0 133 -47t47 -145v-346h-26v345q0 88 -40.5 128t-113.5 40q-86 0 -139.5 -51.5t-53.5 -159.5v-422q0 -61 -31 -90.5t-74 -29.5q-19 0 -34 3t-27 7v26q15 -7 30.5 -9t30.5 -2q40 0 59.5 26.5t19.5 72.5v644h21l4 -111h2q12 31 35.5 58.5t62 45t94.5 17.5z" />
    <glyph glyph-name="uni0273" unicode="&#x273;" horiz-adv-x="573" 
d="M489 -91q0 -66 28 -93.5t74 -27.5q20 0 35 3t25 7v-25q-10 -4 -26.5 -7t-34.5 -3q-61 0 -94 35t-33 104v443q0 88 -40.5 128t-113.5 40q-86 0 -139.5 -51.5t-53.5 -159.5v-302h-26v528h21l4 -111h2q12 31 35.5 58.5t62 45t94.5 17.5q86 0 133 -47t47 -145v-437z" />
    <glyph glyph-name="uni0274" unicode="&#x274;" horiz-adv-x="562" 
d="M83 0v536h23l360 -488q-1 32 -1 56.5v51.5v380h26v-536h-22l-361 490q1 -27 1 -50.5v-43.5v-396h-26z" />
    <glyph glyph-name="uni0275" unicode="&#x275;" horiz-adv-x="575" 
d="M515 264q0 -77 -24.5 -139.5t-75 -98.5t-129.5 -36q-76 0 -126.5 36t-75.5 98t-25 140q0 126 61.5 200t171.5 74q80 0 129 -36.5t71.5 -98.5t22.5 -139zM292 513q-95 0 -148 -61t-58 -170h402q-2 65 -23 117.5t-63 83t-110 30.5zM286 15q69 0 113.5 31t66 86t22.5 125
h-402q1 -71 23 -126t66.5 -85.5t110.5 -30.5z" />
    <glyph glyph-name="uni0276" unicode="&#x276;" horiz-adv-x="850" 
d="M288 546q79 0 132 -39t78 -108v137h307v-25h-281v-215h266v-25h-266v-246h281v-25h-307v145q-25 -69 -78 -111t-132 -42q-74 0 -127.5 36.5t-81.5 99.5t-28 143q0 79 28.5 141t81.5 98t127 36zM288 521q-67 0 -114 -32.5t-72 -88.5t-25 -129t24.5 -130.5t72 -90.5
t114.5 -33t113.5 32.5t71 90t24.5 131.5q0 116 -55.5 183t-153.5 67z" />
    <glyph glyph-name="uni0277" unicode="&#x277;" horiz-adv-x="705" 
d="M352 538q135 0 215 -77.5t80 -223.5q0 -46 -8 -90t-27 -79.5t-51.5 -56.5t-80.5 -21q-54 0 -85 28t-42 74h-2q-10 -46 -44 -74t-84 -28q-76 0 -120.5 63t-44.5 184q0 148 78.5 224.5t215.5 76.5zM352 512q-125 0 -196 -66t-71 -209q0 -109 36 -165.5t105 -56.5
q56 0 85 40t29 116v167h26v-167q0 -156 113 -156q73 0 107 60t34 162q0 143 -72.5 209t-195.5 66z" />
    <glyph glyph-name="uni0278" unicode="&#x278;" horiz-adv-x="637" 
d="M331 536q119 -5 183 -77t64 -194q0 -76 -29 -136t-84 -96t-134 -41v-232h-26v232q-119 4 -183 77.5t-64 195.5q0 121 64.5 193t182.5 78v224h26v-224zM305 511q-106 -4 -163 -70t-57 -176q0 -114 57 -179.5t163 -68.5v494zM331 17q70 3 119 35.5t75 87.5t26 125
q0 112 -56 177t-164 69v-494z" />
    <glyph glyph-name="uni0279" unicode="&#x279;" horiz-adv-x="375" 
d="M97 -8q-24 0 -43.5 3t-37.5 8l6 24q19 -5 36 -7.5t39 -2.5q83 0 122 58t39 156v297h26v-528h-24l-2 101h-2q-14 -46 -54.5 -77.5t-104.5 -31.5z" />
    <glyph glyph-name="uni027A" unicode="&#x27a;" horiz-adv-x="375" 
d="M97 -8q-24 0 -43.5 3t-37.5 8l6 24q19 -5 36 -7.5t39 -2.5q83 0 122 58t39 156v529h26v-760h-24l-2 101h-2q-14 -46 -54.5 -77.5t-104.5 -31.5z" />
    <glyph glyph-name="uni027B" unicode="&#x27b;" horiz-adv-x="375" 
d="M385 -237q-61 0 -94 35t-33 104v199h-2q-14 -46 -54.5 -77.5t-104.5 -31.5q-24 0 -43.5 3t-37.5 8l6 24q19 -5 36 -7.5t39 -2.5q83 0 122 58t39 156v297h26v-619q0 -66 28 -93.5t74 -27.5q20 0 35 3t25 7v-25q-10 -4 -26.5 -7t-34.5 -3z" />
    <glyph glyph-name="uni027C" unicode="&#x27c;" horiz-adv-x="375" 
d="M278 536q24 0 43.5 -3t37.5 -8l-6 -24q-19 5 -35.5 7.5t-39.5 2.5q-83 0 -122 -58t-39 -156v-537h-26v768h24l2 -101h2q14 46 54.5 77.5t104.5 31.5z" />
    <glyph glyph-name="uni027D" unicode="&#x27d;" horiz-adv-x="375" 
d="M278 536q24 0 43.5 -3t37.5 -8l-6 -24q-19 5 -35.5 7.5t-39.5 2.5q-83 0 -122 -58t-39 -156v-388q0 -66 28 -93.5t74 -27.5q20 0 35 3t25 7v-25q-10 -4 -26.5 -7t-34.5 -3q-61 0 -94 35t-33 104v626h24l2 -101h2q14 46 54.5 77.5t104.5 31.5z" />
    <glyph glyph-name="uni027E" unicode="&#x27e;" horiz-adv-x="327" 
d="M234 538q29 0 50.5 -5.5t31.5 -10.5l-5 -26q-13 7 -33 12t-43 5q-59 0 -92 -35.5t-33 -115.5v-362h-26v369q0 80 39.5 124.5t110.5 44.5z" />
    </font>
</defs>
</svg>
